Скачать через торрент Я хочу остаться человеком! Фильм бесплатно в хорошем качестве torrent

Скачивайте на UnionPeer.org фильмы через торрент без регистрации. Новинки кино в хорошем качестве через торрент. На UnionPeer.org можно скачать через торрент фильмы 2014 и 2015 годов. Самые новые фильмы.

Скачать торрент Я хочу остаться человеком! бесплатно через .torrent фильм мультфильм сериал

Если у вас наблюдаются проблемы со скриншотами, переходом по ссылками, скачиванием торрентов - проблемы в блокировщике рекламы AdBlock. #хорошегоДня!


Статистика раздачи
Размер:  1.63 GB   |    Зарегистрирован:  11 дней   |    .torrent скачан:  10 раз   |   
Раздают:  1  
   
Загрузка...
 
Автор Сообщение

Galfimbul

avatar Galfimbul


Я хочу остаться человеком!

Дата/Год выпуска: 2016
Страна: Россия
Жанр: Познавательно-патриотический
Продолжительность: 02:21:32
Перевод: Не требуется
Русские субтитры: нет
Оригинальная аудиодорожка: русский

Режиссер: Г. Царёва

Описание: Мы живем в эпоху глобального научного переворота. За последние несколько десятилетий человечество обрело больше научных знаний, чем за всю предыдущую историю. Но куда эти знания приведут людей? Последнее десятилетие 20 века Евросоюзом и Конгрессом США было объявлено декадой исследования мозга. Научные изыскания и разработки в области нейротехнологий и работы мозга активно идут по всему миру. Главный фокус внимания - создание интерфейсов мозг-компьютер (введение датчиков, чипов в мозг для соединения его с компьютером). Цель же всего этого процесса одна: создание искусственного интеллекта, управление человеком, превращение его в биоробота, который, не обладая свободной волей, станет марионеткой в чужих руках. В фильме говорится о введении в жизнь идей Трансгуманизма, о разрушении системы образовании, о виртуальной реальности, о Нейронете - соединении мозга с компьютером, о новых религиях.

Доп. информация: Рип сделан с этого исходника - ...5462000.

Сэмпл: https://cloud.mail.ru/public/CzkJ/rN5Z9xf4D

Качество: DVDRip
Формат: AVI
Видео: 1448 Кбит/сек, 720*544 (4:3), 25,000 кадров/сек, XviD
Аудио: Русский, 192 Кбит/сек, 48,0 КГц, 16 бит, 2 канала, AC-3
ОбщееПолное имя : I:\MONAR\Документальные фильмы\Познавательные фильмы\Я хочу остаться человеком!.aviФормат : AVIФормат/Информация : Audio Video InterleaveРазмер файла : 1,63 ГбайтПродолжительность : 2 ч. 21 м.Общий поток : 1650 Кбит/сек

ВидеоИдентификатор : 0Формат : MPEG-4 VisualПрофиль формата : Advanced Simple@L5Настройки формата : BVOP2 / Custom MatrixПараметр BVOP формата : 2Параметр QPel формата : НетПараметр GMC формата : Без точки переходаПараметр матрицы формата : ВыборочнаяИдентификатор кодека : XVIDИдентификатор кодека/Подсказка : XviDПродолжительность : 2 ч. 21 м.Битрейт : 1448 Кбит/секШирина : 720 пикселейВысота : 544 пикселяСоотношение сторон : 4:3Частота кадров : 25,000 кадров/секЦветовое пространство : YUVСубдискретизация насыщенности : 4:2:0Битовая глубина : 8 битТип развёртки : ПрогрессивнаяМетод сжатия : С потерямиБит/(Пиксели*Кадры) : 0.148Размер потока : 1,43 Гбайт (88%)Библиотека кодирования : XviD 1.2.1 (UTC 2008-12-04)

АудиоИдентификатор : 1Формат : AC-3Формат/Информация : Audio Coding 3Параметр Endianness формата : BigИдентификатор кодека : 2000Продолжительность : 2 ч. 21 м.Продолжительность оригинала : 2 ч. 21 м.Вид битрейта : ПостоянныйБитрейт : 192 Кбит/секКаналы : 2 каналаРасположение каналов : Front: L RЧастота : 48,0 КГцЧастота кадров : 31,250 кадров/сек (1536 SPF)Битовая глубина : 16 битМетод сжатия : С потерямиРазмер потока : 194 Мбайт (12%)Выравнивание : Соединение по промежуткамПродолжительность промежутка : 40 мс. (1,00 видеокадр)ServiceKind/String : Complete Main


Трекер:  [ 09-Окт-2017 15:12 ]

  

Скачать .torrent

Размер .torrent файла 17 KB


Размер: 1.63 GB
Хэш (hash) релиза: e36ab75c9caf4ab4e7dff9158e03d4eaafe7e47e
Подписка на обновления:

Торренты, похожие на Я хочу остаться человеком! скачать торрент

Форум Название Автор Размер S L Добавлен
Документальные фильмы и телепередачи ·· Я хочу остаться человеком! (Галина Царёва) [2016, Познавательно-патриотический, DVD5] Galfimbul 46305730564.31 GB 0 0 1507144384

22:13

4-Окт-17

Еще никто не оставлял запись к записи скачать торрент Я хочу остаться человеком! . Будь первым!

!Обратная связь