Скачать через торрент Мы созидаем космическое будущее Фильм бесплатно в хорошем качестве torrent

Скачивайте на UnionPeer.org фильмы через торрент без регистрации. Новинки кино в хорошем качестве через торрент. На UnionPeer.org можно скачать через торрент фильмы 2014 и 2015 годов. Самые новые фильмы.

Скачать торрент Мы созидаем космическое будущее бесплатно через .torrent фильм мультфильм сериал

Если у вас наблюдаются проблемы со скриншотами, переходом по ссылками, скачиванием торрентов - проблемы в блокировщике рекламы AdBlock. #хорошегоДня!


Статистика раздачи
Размер:  279 MB   |    Зарегистрирован:  11 дней   |    .torrent скачан:  3 раза   |   
Раздают:  2   Качают:  1  
   
Загрузка...
 
Автор Сообщение

Galfimbul

avatar Galfimbul


Мы созидаем космическое будущее (Специальный репортаж)

Дата: 03.07.2017
Страна: Республика Беларусь
Жанр: Документальный
Продолжительность: 00:14:14
Перевод: Не требуется
Телеканал: Беларусь 1

Релиз:

Описание: Беларусь космическая. Каким будет третий спутник нашей страны и что за секреты хранят заводы, работавшие на космос в советское время? Новейшие разработки и традиции: белорусский след в легендарном полете Гагарина и возведении Байконура, а также невероятные возможности нашей оптики. И эксклюзивное интервью с околоземной орбиты.

Доп. информация: Запись потока *.ts с наземного цифрового телеканала "Беларусь 1".

Подобные фильмы:
Дилогия о советском космонавте, дважды Герое Советского Союза Ковалёнке Владимире Васильевиче. Президент Федерации космонавтики Российской Федерации:
Хлопец из деревни Белое (1979)
Командир из деревни Белое (2001)


Одной звезды я повторяю имя... / Пётр Климук
...5461130

Звездное притяжение / Отто Шмидт / Павел Сухой / Семен Косберг / Борис Кит
...4107437
От земли, ветра и солнца / Экологически чистый дом
...4858280
Мечта о космосе
...4858363
Новый космический отсчет
...4320969
Белорусский космос
...4773579
Другое небо / Павел Сухой
...3698898

Благодарность: за помощь с недостающим материалом Bartimeyse и PavelDAS. Обоим большое спасибо!
...9778909
Качество: DVB
Контейнер: TS
Видео кодек: H.264
Аудио кодек: MP2
Видео: MPEG4 Video (H264) 720(785)x576 (49:36) 25fps, 2 342 kb/s
Аудио: MPEG Audio 48000Hz stereo 256kbps
GeneralID : 1 (0x1)Complete name : D:\Новая земля 2\001 Документальный фильмы\Личности\Мы созидаем космическое будущее (03.07.2017)\Мы созидаем космическое будущее (03.07.2017).tsFormat : MPEG-TSFile size : 279 MiBDuration : 14 minOverall bit rate mode : VariableOverall bit rate : 2 736 kb/s

VideoID : 101 (0x65)Menu ID : 1 (0x1)Format : AVCFormat/Info : Advanced Video CodecFormat profile : Main@L3Format settings, CABAC : YesFormat settings, ReFrames : 4 framesCodec ID : 27Duration : 14 minBit rate : 2 342 kb/sWidth : 720 pixelsHeight : 576 pixelsDisplay aspect ratio : 4:3Frame rate : 25.000 FPSStandard : PALColor space : YUVChroma subsampling : 4:2:0Bit depth : 8 bitsScan type : MBAFFScan type, store method : Separated fieldsScan order : Top Field FirstBits/(Pixel*Frame) : 0.226Stream size : 239 MiB (86%)Color range : LimitedColor primaries : BT.601 PALTransfer characteristics : BT.470 System B, BT.470 System GMatrix coefficients : BT.601

AudioID : 102 (0x66)Menu ID : 1 (0x1)Format : MPEG AudioFormat version : Version 1Format profile : Layer 2Codec ID : 3Duration : 14 minBit rate mode : ConstantBit rate : 256 kb/sChannel(s) : 2 channelsSampling rate : 48.0 kHzCompression mode : LossyStream size : 26.1 MiB (9%)Language : English


Трекер:  [ 09-Окт-2017 15:12 ]

  

Скачать .torrent

Размер .torrent файла 11 KB


Размер: 279 MB
Хэш (hash) релиза: 1084cfb6ecebf3afb7241bf7299ef7f1be886834
Подписка на обновления:

Еще никто не оставлял запись к записи скачать торрент Мы созидаем космическое будущее . Будь первым!

!Обратная связь