Скачать через торрент Брюс Спрингстин Bruce Springsten: In His Own Words Фильм бесплатно в хорошем качестве torrent

Скачивайте на UnionPeer.org фильмы через торрент без регистрации. Новинки кино в хорошем качестве через торрент. На UnionPeer.org можно скачать через торрент фильмы 2014 и 2015 годов. Самые новые фильмы.

Скачать торрент Брюс Спрингстин Bruce Springsten: In His Own Words бесплатно через .torrent фильм мультфильм сериал

Если у вас наблюдаются проблемы со скриншотами, переходом по ссылками, скачиванием торрентов - проблемы в блокировщике рекламы AdBlock. #хорошегоДня!


Статистика раздачи
Размер:  1.09 GB   |    Зарегистрирован:  12 дней   |    .torrent скачан:  4 раза   |   
Раздают:  1  
   
Загрузка...
 
Автор Сообщение

Galfimbul

avatar Galfimbul


Брюс Спрингстин / Bruce Springsten: In His Own Words

Дата/Год выпуска: 2016
Страна: Великобритания
Жанр: документальный
Продолжительность: 01:13:45
Перевод: Студийный (одноголосый закадровый)
Русские субтитры: нет

Оригинальная аудиодорожка: английский
Режиссер: Найджел Коул / Nigel Cole

Описание: Начиная с шестидесятых годов прошлого века и до настоящего времени, Брюс Спрингстин пишет песни, которые становятся мировыми хитами. В фильме Брюс упоминает о ключевых моментах своей биографии, благодаря которым он принял решение стать музыкантом. Спрингстин подробно рассказывает о том, как провёл детство в Фрихолд Боро, штат Нью-Джерси, как играл в Эсбери-парке, как набирала популярность его группа E Street Band и как в конце концов он поднялся на вершину, став крупнейшей рок-звездой.

Сэмпл: http://multi-up.com/1170176

качество: HDTVRip
формат: AVI
Видео: MPEG4, XviD, 720x400 (16:9), 25.000 fps, 1 533 Kbps (0.213 bit/pixel)
Аудио: AC-3, 48.0 KHz, 2 ch, 192 Kbps, CBR - 1 канал
Аудио 2: AC-3, 48.0 KHz, 6 ch, 384 Kbps, CBR - английский
ОбщееПолное имя : M:\Брюс Спрингстин.aviФормат : AVIФормат/Информация : Audio Video InterleaveРазмер файла : 1,09 ГбайтПродолжительность : 1 ч. 13 м.Общий поток : 2124 Кбит/секНазвание фильма : Брюс Спрингстин / Bruce Springsten: In His Own Words (2016)Программа кодирования : VirtualDubMod 1.5.10.2 (build 2540/release)Библиотека кодирования : VirtualDubMod build 2540/releaseАвторское право : miha2154

ВидеоИдентификатор : 0Формат : MPEG-4 VisualПрофиль формата : Advanced Simple@L5Параметр BVOP формата : 1Параметр QPel формата : НетПараметр GMC формата : Без точки переходаПараметр матрицы формата : ВыборочнаяИдентификатор кодека : XVIDИдентификатор кодека/Подсказка : XviDПродолжительность : 1 ч. 13 м.Битрейт : 1533 Кбит/секШирина : 720 пикселейВысота : 400 пикселейСоотношение сторон : 16:9Частота кадров : 25,000 кадров/секЦветовое пространство : YUVСубдискретизация насыщенности : 4:2:0Битовая глубина : 8 битТип развёртки : ПрогрессивнаяМетод сжатия : С потерямиБит/(Пиксели*Кадры) : 0.213Размер потока : 809 Мбайт (72%)Библиотека кодирования : XviD 65

Аудио #1Идентификатор : 1Формат : AC-3Формат/Информация : Audio Coding 3Расширение режима : CM (complete main)Параметр Endianness формата : BigИдентификатор кодека : 2000Продолжительность : 1 ч. 13 м.Вид битрейта : ПостоянныйБитрейт : 192 Кбит/секКаналы : 2 каналаРасположение каналов : Front: L RЧастота : 48,0 КГцЧастота кадров : 31,250 кадров/сек (1536 spf)Метод сжатия : С потерямиРазмер потока : 101 Мбайт (9%)Выравнивание : Разделение по промежуткамПродолжительность промежутка : 40 мс. (1,00 видеокадр)Время предзагрузки промежутка : 500 мс.Заголовок : Профессиональный (одноголосый закадровый) 1 канал

Аудио #2Идентификатор : 2Формат : AC-3Формат/Информация : Audio Coding 3Расширение режима : CM (complete main)Параметр Endianness формата : BigИдентификатор кодека : 2000Продолжительность : 1 ч. 13 м.Вид битрейта : ПостоянныйБитрейт : 384 Кбит/секКаналы : 6 каналовРасположение каналов : Front: L C R, Side: L R, LFEЧастота : 48,0 КГцЧастота кадров : 31,250 кадров/сек (1536 spf)Метод сжатия : С потерямиРазмер потока : 203 Мбайт (18%)Выравнивание : Разделение по промежуткамПродолжительность промежутка : 40 мс. (1,00 видеокадр)Время предзагрузки промежутка : 500 мс.Заголовок : Английский


Трекер:  [ 09-Окт-2017 13:42 ]

  

Скачать .torrent

Размер .torrent файла 11 KB


Размер: 1.09 GB
Хэш (hash) релиза: 523d37cad1821103f85e2ed0ce7f194f9f2118e3
Подписка на обновления:

Еще никто не оставлял запись к записи скачать торрент Брюс Спрингстин Bruce Springsten: In His Own Words . Будь первым!

!Обратная связь