Скачать через торрент Двуличная сестрёнка Умару 2 бесплатно Аниме Все серии на русском torrent

Если у вас наблюдаются проблемы со скриншотами, переходом по ссылками, скачиванием торрентов - проблемы в блокировщике рекламы AdBlock. #хорошегоДня!


Статистика раздачи
Размер:  430 MB   |    Зарегистрирован:  12 дней   |    .torrent скачан:  4 раза   |   
Раздают:  1  
   
Загрузка...
 
Автор Сообщение

Galfimbul

avatar Galfimbul


Двуличная сестрёнка Умару 2
Himouto! Umaru-chan R
My Two-Faced Little Sister R
干物妹! うまるちゃんR

Страна: Япония
Год выпуска: 2017 г.
Жанр: комедия, повседневность, школа, сэйнэн
Тип: TV
Продолжительность: 12 эп. по ~24 мин.
Режиссер: Ота Масахико
Студия: Русские субтитры от AniPlay
Перевод: OctupusРусские субтитры от SovetRomantica
Перевод: Ambalabada | Редактура: RistrettoОписание: Лень как воплощение сие бытия. В каждом из нас живет эта личность. По богословию лень это один из главных грехов, с чем это аниме в корне не согласно. Вас ожидает целая пропаганда благородного ленивого образа жизни от специалиста этого дела по имени Умару Дома. Девочка 16-ти лет, умница, красавица и труженица в лице своих одноклассников и всей общественности. Но это всего лишь ширма, скрывающая её истинную, ленивую натуру. По своему существу Умару очень не любит трудится. Игры, кола, чипсы, манга, интернет, аниме по ночам - это для неё сакральные вещи. Но при этом она умудряется не палить свои привычки перед всеми, кроме братика и в глазах остальных людей предпочитает быть примером для подражания.

Умару проживает в скромной, однокомнатной квартире со своим старшем братом, несмотря на то, что их семья в целом довольно таки богата. Братик в корне от неё отличается. Он трудяга не только на работе, но и дома, так как Умару его безжалостно эксплуатирует. Аниме в целом наполнено позитивным юмором и комичными ситуациями.Информационные ссылки: AniDB | MyAnimeList | World ArtКачество: HDTVRip
Тип релиза: Без хардсаба
Формат видео: MP4
Наличие линковки: Нет
Релиз/Автор рипа: Leopard-Raws
Видео: x264, 8 bit, 1280x720, ~2299 Kbps, 23.976 fps
Аудио (int): JAP, AAC, 48000 Hz, ~192 Kbps, 2 ch
Субтитры #1-2 (ext): RUS, ASS
<div class="sp-wrap">
<div class="sp-head folded">MediaInfo</div>
<div class="sp-body">

Формат : MPEG-4Профиль формата : Base MediaИдентификатор кодека : isom (isom/avc1/iso6)Размер файла : 428 МбайтПродолжительность : 24 м. 0 с.Режим общего битрейта : ПеременныйОбщий поток : 2494 Кбит/секДата кодирования : UTC 2017-10-09 06:20:22Дата пометки : UTC 2017-10-09 06:20:22

ВидеоИдентификатор : 1Формат : AVCФормат/Информация : Advanced Video CodecПрофиль формата : High@L4.1Параметр CABAC формата : ДаПараметр ReFrames формата : 4 кадраИдентификатор кодека : avc1Идентификатор кодека/Информация : Advanced Video CodingПродолжительность : 24 м. 0 с.Битрейт : 2299 Кбит/секМаксимальный битрейт : 18,3 Мбит/секШирина : 1280 пикселейВысота : 720 пикселейСоотношение сторон : 16:9Режим частоты кадров : ПостоянныйЧастота кадров : 23,976 (24000/1001) кадра/секЦветовое пространство : YUVСубдискретизация насыщенности : 4:2:0Битовая глубина : 8 битТип развёртки : ПрогрессивнаяБит/(Пиксели*Кадры) : 0.104Размер потока : 395 Мбайт (92%)Заголовок : 264:fps=23.976@GPAC0.5.2-DEV-rev376-g5eeb74d-masterБиблиотека кодирования : x264 core 129 r2245+729M 1a52e03Настройки программы : cabac=1 / ref=4 / deblock=1:1:-1 / analyse=0x3:0x113 / me=umh / subme=9 / psy=1 / fade_compensate=0.00 / psy_rd=1.00:0.00 / mixed_ref=1 / me_range=24 / chroma_me=1 / trellis=2 / 8x8dct=1 / cqm=0 / deadzone=21,11 / fast_pskip=1 / chroma_qp_offset=-2 / threads=8 / lookahead_threads=1 / sliced_threads=0 / nr=0 / decimate=1 / interlaced=0 / bluray_compat=0 / constrained_intra=0 / fgo=0 / bframes=9 / b_pyramid=2 / b_adapt=2 / b_bias=0 / direct=1 / weightb=1 / open_gop=0 / weightp=2 / keyint=240 / keyint_min=24 / scenecut=40 / intra_refresh=0 / rc=crf / mbtree=0 / crf=18.5 / qcomp=0.72 / qpmin=0 / qpmax=69 / qpstep=4 / ip_ratio=1.40 / pb_ratio=1.30 / aq=1:0.85Дата кодирования : UTC 2017-10-09 06:20:22Дата пометки : UTC 2017-10-09 06:20:36Цветовой диапазон : LimitedОсновные цвета : BT.709Характеристики трансфера : BT.709Коэффициенты матрицы : BT.709

АудиоИдентификатор : 2Формат : AACФормат/Информация : Advanced Audio CodecПрофиль формата : LCИдентификатор кодека : 40Продолжительность : 24 м. 0 с.Вид битрейта : ПеременныйБитрейт : 192 Кбит/секМаксимальный битрейт : 227 Кбит/секКаналы : 2 каналаРасположение каналов : Front: L RЧастота : 48,0 КГцЧастота кадров : 46,875 кадров/сек (1024 spf)Метод сжатия : С потерямиРазмер потока : 32,8 Мбайт (8%)Язык : JapaneseДата кодирования : UTC 2017-10-08 18:42:48Дата пометки : UTC 2017-10-09 06:20:36
</div>
</div>
01. Двуличная Сестрёнка Возвращается
02.


Трекер:  [ 09-Окт-2017 11:30 ]

  

Скачать .torrent

Размер .torrent файла 2 KB


Размер: 430 MB
Хэш (hash) релиза: 3f29439c67ee7efb2a73798534a16262b1f1efae
Подписка на обновления:

Еще никто не оставлял запись к записи скачать торрент Двуличная сестрёнка Умару 2 . Будь первым!

!Обратная связь