Скачать через торрент Новая игра! бесплатно Аниме Все серии на русском torrent

Если у вас наблюдаются проблемы со скриншотами, переходом по ссылками, скачиванием торрентов - проблемы в блокировщике рекламы AdBlock. #хорошегоДня!


Статистика раздачи
Размер:  234 MB   |    Зарегистрирован:  12 дней   |    .torrent скачан:  5 раз   |   
Раздают:  1  
   
Загрузка...
 
Автор Сообщение

Galfimbul

avatar Galfimbul


Новая игра! (ТВ-1) / New Game!

Страна: Япония
Год выпуска: 2016
Жанр: повседневность, комедия
Тип: Special
Продолжительность: 1 спешл, ~23 мин.
Режиссер: Фудзивара Ёсиюки
Студия: Dogakobo

Описание: Тринадцатый эпизод аниме «Новая игра!», вышедший вместе с шестым Blu-ray/DVD-боксом. OVA рассказывает про поездку Аобы Сузуказэ и ее друзей на горячие источники.
(c) shikimori

Качество: DVDRip
Тип релиза: Без хардсаба
Формат видео: MKV
Релиз/Автор рипа: kdfffss
Видео: H264/AVC, 1024x576 (16:9), 1066 Кбит/сек, 23,976 кадра/сек, 10 бит
Аудио: AAC, 257 Кбит/сек, 48,0 КГц, 2 канала Язык Японский
Субтитры: ASS, встроенные Язык субтитров русский ; Перевод: Shift & Timecraft (переводчик: Саша Ушкина, редактор: Seiya Loveless, оформление: Surokune)
ОбщееУникальный идентификатор : 249240994910231890189445454085978961252 (0xBB8211CDCF23AAFA9ED531159299B564)Полное имя : F:\releases\New Game [Special]\New Game! - Special.mkvФормат : MatroskaВерсия формата : Version 4 / Version 2Размер файла : 234 МбайтПродолжительность : 22 м. 43 с.Общий поток : 1443 Кбит/секДата кодирования : UTC 2017-10-09 02:52:58Программа кодирования : mkvmerge v16.0.0 ('Protest') 64-bitБиблиотека кодирования : libebml v1.3.5 + libmatroska v1.4.8Attachments : meiryo.ttc / meiryob.ttc / SansRoundedC (Regular).otf / trebuc.ttf / trebucbd.ttf / trebucbi.ttf / v_10 Cent Comics (Regular).ttf / Vogue ( Bold).TTF

ВидеоИдентификатор : 2Формат : AVCФормат/Информация : Advanced Video CodecПрофиль формата : High 10@L5Настройки формата : CABAC / 16 Ref FramesПараметр CABAC формата : ДаПараметр RefFrames формата : 16 кадровИдентификатор кодека : V_MPEG4/ISO/AVCПродолжительность : 22 м. 43 с.Битрейт : 1066 Кбит/секШирина : 1024 пикселяВысота : 576 пикселейСоотношение сторон : 16:9Режим частоты кадров : ПостоянныйЧастота кадров : 23,976 (24000/1001) кадра/секЦветовое пространство : YUVСубдискретизация насыщенности : 4:2:0Битовая глубина : 10 битТип развёртки : ПрогрессивнаяБит/(Пиксели*Кадры) : 0.075Размер потока : 173 Мбайт (74%)Библиотека кодирования : x264 core 148 r2744kMod b97ae06Настройки программы : cabac=1 / ref=16 / deblock=1:0:0 / analyse=0x3:0x133 / me=umh / subme=11 / psy=1 / fade_compensate=0.80 / psy_rd=0.75:0.00 / mixed_ref=1 / me_range=32 / chroma_me=1 / trellis=2 / 8x8dct=1 / cqm=0 / deadzone=21,11 / fast_pskip=0 / chroma_qp_offset=-2 / threads=12 / lookahead_threads=3 / sliced_threads=0 / nr=0 / decimate=1 / interlaced=0 / bluray_compat=0 / constrained_intra=0 / bframes=16 / b_pyramid=2 / b_adapt=2 / b_bias=0 / direct=3 / weightb=1 / open_gop=0 / weightp=2 / keyint=250 / keyint_min=23 / scenecut=40 / intra_refresh=0 / rc_lookahead=250 / rc=crf / mbtree=1 / crf=15.0000 / qcomp=0.70 / qpmin=0 / qpmax=81 / qpstep=4 / ip_ratio=1.40 / aq=3:0.80Default : ДаForced : НетЦветовой диапазон : LimitedОсновные цвета : BT.601 NTSCХарактеристики трансфера : BT.601Коэффициенты матрицы : BT.601

АудиоИдентификатор : 1Формат : AACФормат/Информация : Advanced Audio CodecПрофиль формата : LCИдентификатор кодека : A_AAC-2Продолжительность : 22 м. 43 с.Битрейт : 257 Кбит/секКаналы : 2 каналаРасположение каналов : Front: L RЧастота : 48,0 КГцЧастота кадров : 46,875 кадров/сек (1024 SPF)Метод сжатия : С потерямиРазмер потока : 41,7 Мбайт (18%)Default : ДаForced : Нет

ТекстИдентификатор : 3Формат : ASSИдентификатор кодека : S_TEXT/ASSИдентификатор кодека/Информация : Advanced Sub Station AlphaПродолжительность : 21 м. 21 с.Битрейт : 160 бит/секElementCount : 377Метод сжатия : Без потерьРазмер потока : 25,1 Кбайт (0%)Default : ДаForced : Нет

Меню00:00:00.000 : en:Prologue00:00:46.020 : en:Opening00:02:15.990 : en:Part A00:13:15.980 : en:Eyecatch00:13:18.980 : en:Part B00:21:35.730 : en:Ending
SP.01 (ep.13) My First Time on a Company Vacation...


Трекер:  [ 09-Окт-2017 06:30 ]

  

Скачать .torrent

Размер .torrent файла 18 KB


Размер: 234 MB
Хэш (hash) релиза: 51791b47c80a698d5b3084031c534e431e020e3e
Подписка на обновления:

Торренты, похожие на Новая игра! скачать торрент

Форум Название Автор Размер S L Добавлен
Аниме | HD Rips ·· Новая игра!! (ТВ-2) / New Game!! [TV] [1-2 из 12] [без хардсаба] [JAP+SUB] [2017, повседневность, комедия, BDRemux] [1080p] Galfimbul 1485991435713.84 GB 0 0 1507757485

00:31

12-Окт-17

Аниме | HD Rips ·· Новая игра!! (ТВ-2) / New Game!! [TV] [2 из 12] [Без хардсаба] [JAP+SUB] [2017, повседневность, комедия, BDRip] [1080p] Galfimbul 29100655262.71 GB 0 0 1507727074

16:04

11-Окт-17

Аниме | Rips ·· Новая игра!! (ТВ-2) / New Game!! [TV] [01 из 12] [Без хардсаба] [RUS(ext), JAP, SUB] [2017, Повседневность, Комедия, HDTVRip] [720p] Galfimbul 442489390422 MB 0 0 1499869855

17:30

12-Июл-17

Аниме | HD Rips ·· Новая игра!! (ТВ-2) / New Game!! [TV] [1 из 12] [Без хардсаба] [JAP+SUB] [2017, повседневность, комедия, WEBRip] [1080p] Galfimbul 567225060541 MB 0 0 1499806951

00:02

12-Июл-17

Аниме | HD Rips ·· Новая игра!! (ТВ-2) / New Game!! (Фудзивара Ёсиюки) [TV] [1 из 12] [Без хардсаба] [JAP+SUB] [2017, повседневность, комедия, WEBRip] [720p] Galfimbul 221477529211 MB 0 0 1499230921

08:02

5-Июл-17

Аниме | Rips ·· Новая Игра! / New Game! [OVA] [1 из 1] [Без хардсаба] [RUS(ext), JAP, SUB] [2017, Повседневность, Комедия, DVDRip] [720p] Galfimbul 976636333931 MB 0 0 1497762092

08:01

18-Июн-17

Аниме | HD Rips ·· Новая игра! (ТВ-1) / New Game! (Фудзивара Ёсиюки) [TV] [12 из 12] [без хардсаба] [RUS(ext), JAP+SUB] [2016, повседневность, комедия, BDRip] [720p] Galfimbul 75049737686.99 GB 0 0 1497625319

18:01

16-Июн-17

Аниме | Rips ·· Новая игра! (ТВ-1) / New Game! (Фудзивара Ёсиюки) [TV] [12 из 12] [без хардсаба] [RUS(ext), JAP+SUB] [2016, повседневность, комедия, BDRip] [720p] Galfimbul 75049737686.99 GB 0 0 1496965193

02:39

9-Июн-17

Аниме | Rips ·· Новая игра! (ТВ-1) / New Game! [TV] [12 из 12] [Без хардсаба] [RUS(int), JAP+SUB] [2016, повседневность, комедия, BDRip] [HWP] Galfimbul 33578372863.13 GB 0 0 1496963853

02:17

9-Июн-17

Аниме | HD Rips ·· Новая игра! / New Game! (Фудзивара Ёсиюки) [TV] [12 из 12] [без хардсаба] [RUS(ext), JAP+SUB] [2016, cейнен, повседневность, комедия, BDRemux] [1080p] Galfimbul 8721615886181.23 GB 0 0 1496256905

21:55

31-Май-17

Аниме | HD Rips ·· Новая игра! / New Game! [TV] [12 из 12] [Без хардсаба] [RUS(ext),JAP+SUB] [2016, повседневность, комедия, BDRip] [1080p] Galfimbul 2953270046527.5 GB 0 0 1495318059

01:07

21-Май-17

Аниме | Rips ·· Новая игра! / New Game! (Фудзивара Ёсиюки) [OVA] [1 из 1] [Без хардсаба] [JAP+SUB] [2017, повседневность, комедия, DVDRip] Galfimbul 952447642908 MB 0 0 1495086283

08:44

18-Май-17

Аниме | HD Rips ·· Новая игра! (ТВ-1) / New Game! (Фудзивара Ёсиюки) [TV] [без хардсаба] [12 из 12] [JAP+SUB] & [7 из 12] [RUS(ext)] [2016, повседневность, комедия, BDRip] [720p] Galfimbul 73341825476.83 GB 0 0 1494178864

20:41

7-Май-17

Аниме | Rips ·· Новая игра! (ТВ-1) / New Game! [TV] [01-04 из 12] [Без хардсаба] [RUS(int), JAP+SUB] [2016, повседневность, комедия, BDRip] [HWP] Galfimbul 11585829811.08 GB 0 0 1493625815

11:03

1-Май-17

Аниме | HD Rips ·· Новая игра! / New Game! (Фудзивара Ёсиюки) [TV] [12 из 12] [без хардсаба] [JAP+SUB] [2016, cейнен, повседневность, комедия, BDRemux] [1080p] Galfimbul 8526676277679.41 GB 0 0 1492358393

18:59

16-Апр-17

Аниме | HD Rips ·· Новая игра! / New Game! [TV] [12 из 12] [Без хардсаба] [JAP+SUB] [2016, повседневность, комедия, BDRip] [720p] Galfimbul 43429713374.04 GB 0 0 1489703410

01:30

17-Мар-17

Аниме | HD Rips ·· Новая игра! / New Game! (Фудзивара Ёсиюки) [TV] [1-10 из 12] [без хардсаба] [JAP+SUB] [2016, cейнен, повседневность, комедия, BDRemux] [1080p] Galfimbul 7140528562066.5 GB 0 0 1487880926

23:15

23-Фев-17

Аниме | HD Rips ·· Новая игра! / New Game! (Фудзивара Ёсиюки) [TV] [1-8 из 12] [без хардсаба] [JAP+SUB] [2016, cейнен, повседневность, комедия, BDRemux] [1080p] Galfimbul 5750769429653.56 GB 0 0 1485107050

20:44

22-Янв-17

Аниме | HD Rips ·· Новая игра! / New Game! (Фудзивара Ёсиюки) [TV] [1-6 из 12] [без хардсаба] [JAP+SUB] [2016, cейнен, повседневность, комедия, BDRemux] [1080p] Galfimbul 4308184212840.12 GB 0 0 1480774196

17:09

3-Дек-16

Еще никто не оставлял запись к записи скачать торрент Новая игра! . Будь первым!

!Обратная связь