Скачать через торрент Пленарное заседание форума Российская энергетическая неделя Russian Energy Week Forum plenary session Фильм бесплатно в хорошем качестве torrent

Скачивайте на UnionPeer.org фильмы через торрент без регистрации. Новинки кино в хорошем качестве через торрент. На UnionPeer.org можно скачать через торрент фильмы 2014 и 2015 годов. Самые новые фильмы.

Скачать торрент Пленарное заседание форума Российская энергетическая неделя Russian Energy Week Forum plenary session бесплатно через .torrent фильм мультфильм сериал

Если у вас наблюдаются проблемы со скриншотами, переходом по ссылками, скачиванием торрентов - проблемы в блокировщике рекламы AdBlock. #хорошегоДня!


Статистика раздачи
Размер:  2.32 GB   |    Зарегистрирован:  12 дней   |    .torrent скачан:  2 раза   |   
Раздают:  1  
   
Загрузка...
 
Автор Сообщение

Galfimbul

avatar Galfimbul


Пленарное заседание форума «Российская энергетическая неделя» / Russian Energy Week Forum plenary session

Дата/Год выпуска: 04.10.2017
Страна: Россия
Жанр: Информационная передача
Продолжительность: 01:41:48
Перевод: Профессиональный (двухголосый закадровый)
Русские субтитры: нет

Производство: Президент.РФ
Описание: Владимир Путин принял участие в пленарном заседании «Энергия для глобального роста» первого Международного форума по энергоэффективности и развитию энергетики «Российская энергетическая неделя». Модератором дискуссии стал исполнительный редактор Bloomberg Джон Фрайер. Президент России, отвечая на вопросы ведущего, рассказал анекдот про израильскую армию. Так Путин намекнул, что ведущий задает вопросы только ему.

Участники: Владимир Путин, Джон Фрайер, Мохаммед Баркиндо, Аднан Амин, С.Адели

качество: WEBRip
формат: MKV
Видео: AVC/H.264, 1280x720 (16:9), ~3006 kbps, 25 fps
Аудио: AAC, 128 kbps, 48 kHz, 2 ch (Русский)
Аудио 2: AAC, 128 kbps, 48 kHz, 2 ch (Английский)
GeneralUnique ID : 191061530321988107116702440946706968171 (0x8FBD1CBC3414FE4DAF009C306A586E6B)Complete name : D:\Film\Putin_at_Russian_Energy_Week_2017.mkvFormat : MatroskaFormat version : Version 4 / Version 2File size : 2.32 GiBDuration : 1 h 41 minOverall bit rate : 3 266 kb/sEncoded date : UTC 2017-10-04 19:25:23Writing application : mkvmerge v16.0.0 ('Protest') 64-bitWriting library : libebml v1.3.5 + libmatroska v1.4.8Cover : YesAttachments : cover.png

VideoID : 1Format : AVCFormat/Info : Advanced Video CodecFormat profile : Main@L3.1Format settings : 2 Ref FramesFormat settings, CABAC : NoFormat settings, RefFrames : 2 framesCodec ID : V_MPEG4/ISO/AVCDuration : 1 h 41 minBit rate : 3 006 kb/sWidth : 1 280 pixelsHeight : 720 pixelsDisplay aspect ratio : 16:9Frame rate mode : ConstantFrame rate : 25.000 FPSColor space : YUVChroma subsampling : 4:2:0Bit depth : 8 bitsScan type : ProgressiveBits/(Pixel*Frame) : 0.130Stream size : 2.14 GiB (92%)Language : RussianDefault : YesForced : NoColor range : Limited

Audio #1ID : 2Format : AACFormat/Info : Advanced Audio CodecFormat profile : LCCodec ID : A_AAC-2Duration : 1 h 41 minBit rate : 128 kb/sChannel(s) : 2 channelsChannel positions : Front: L RSampling rate : 48.0 kHzFrame rate : 46.875 FPS (1024 SPF)Compression mode : LossyDelay relative to video : -40 msStream size : 93.2 MiB (4%)Title : RULanguage : RussianDefault : YesForced : No

Audio #2ID : 3Format : AACFormat/Info : Advanced Audio CodecFormat profile : LCCodec ID : A_AAC-2Duration : 1 h 41 minBit rate : 128 kb/sChannel(s) : 2 channelsChannel positions : Front: L RSampling rate : 48.0 kHzFrame rate : 46.875 FPS (1024 SPF)Compression mode : LossyDelay relative to video : -40 msStream size : 93.2 MiB (4%)Title : ENLanguage : EnglishDefault : NoForced : No


Трекер:  [ 09-Окт-2017 05:42 ]

  

Скачать .torrent

Размер .torrent файла 47 KB


Размер: 2.32 GB
Хэш (hash) релиза: 90c26cdb3002a74f0fa568ba8472a96dbc98031e
Подписка на обновления:

Еще никто не оставлял запись к записи скачать торрент Пленарное заседание форума Российская энергетическая неделя Russian Energy Week Forum plenary session . Будь первым!

!Обратная связь