Скачать через торрент Шоу Цианид и Счастье The Cyanide & Happiness Show Фильм бесплатно в хорошем качестве torrent

Скачивайте на UnionPeer.org фильмы через торрент без регистрации. Новинки кино в хорошем качестве через торрент. На UnionPeer.org можно скачать через торрент фильмы 2014 и 2015 годов. Самые новые фильмы.

Скачать торрент Шоу Цианид и Счастье The Cyanide & Happiness Show бесплатно через .torrent фильм мультфильм сериал

Если у вас наблюдаются проблемы со скриншотами, переходом по ссылками, скачиванием торрентов - проблемы в блокировщике рекламы AdBlock. #хорошегоДня!


Статистика раздачи
Размер:  2.62 GB   |    Зарегистрирован:  13 дней   |    .torrent скачан:  8 раз   |   
Раздают:  1  
   
Загрузка...
 
Автор Сообщение

Galfimbul

avatar Galfimbul


Шоу Цианид и Счастье / The Cyanide & Happiness Show

Страна: США
Жанр: Чёрная комедия, Скеч комедия, Сатира, Комедия
Продолжительность серии: ~14 мин
Год выпуска: 2017
Перевод: Одноголосый закадровый
Русские субтитры: есть (J-sUn)

Режиссёр: Dave McElfatrick / Дэйв МакЭльфатрик
Описание: Изначально веб-комиксом созданным Дэйвом МакЭльфатриком, Крисом Уилсоном, Мэттом Мэлвином и Робом ДенБлэйкером. В последствии перевоплотившийся в анимационные скетчи, а после и в полноценное многосерийное шоу, которое было проспонсировано фанатами на Кикстартере.

Семпл: Яндекс Диск

Качество: WEBRip
Формат: MKV
Видео: AVC, 1920х1080p, 23.976 fps, 4 096 Kbps
Аудио: [Озвучка] AAC, 48.0 KHz, 2 channels, 256 Kbps
Аудио 2: [Оригинал] AAC, 44.1 KHz, 2 channels, 73.8 Kbps
Субтитры: Русские ass
Раздача ведётся путём добавления новых серий по мере озвучения.

09.10.2017 Создана раздача
Все раздачи мультсериала
S03E01 - Now That's What I CallPain /
S03E02 - Now That's What I Call a Good Space Time /
S03E03 - Now That's What I Call a Story /
S03E04 - Now That's What I Call Spooky /
S03E05 - Now That's What I Call These Guys /
S03E06 - Now That's What I Call The News /
GeneralUnique ID : 219681742804214243898842604131146521895 (0xA5452A27D3329E2D850A402E67EBDD27)Complete name : F:\Цианиды\Шоу Цианид и Счастье Сезон 3\S03E01 - Now That's What I CallPain.mkvFormat : MatroskaFormat version : Version 4 / Version 2File size : 463 MiBDuration : 14 min 37 sOverall bit rate : 4 428 kb/sEncoded date : UTC 2017-09-29 01:55:13Writing application : mkvmerge v15.0.0 ('Duel with the Devil') 64-bitWriting library : libebml v1.3.5 + libmatroska v1.4.5

VideoID : 1Format : AVCFormat/Info : Advanced Video CodecFormat profile : Main@L4Format settings, CABAC : YesFormat settings, ReFrames : 1 frameFormat settings, GOP : M=1, N=48Codec ID : V_MPEG4/ISO/AVCDuration : 14 min 37 sBit rate : 4 096 kb/sWidth : 1 920 pixelsHeight : 1 080 pixelsDisplay aspect ratio : 16:9Frame rate mode : VariableFrame rate : 23.976 FPSColor space : YUVChroma subsampling : 4:2:0Bit depth : 8 bitsScan type : ProgressiveBits/(Pixel*Frame) : 0.082Stream size : 428 MiB (92%)Writing library : x264 core 120Encoding settings : cabac=1 / ref=1 / deblock=1:0:0 / analyse=0x1:0x111 / me=hex / subme=6 / psy=1 / psy_rd=1.00:0.00 / mixed_ref=0 / me_range=16 / chroma_me=0 / trellis=1 / 8x8dct=0 / cqm=0 / deadzone=21,11 / fast_pskip=1 / chroma_qp_offset=-2 / threads=8 / sliced_threads=0 / nr=0 / decimate=1 / interlaced=0 / bluray_compat=0 / constrained_intra=0 / bframes=0 / weightp=2 / keyint=48 / keyint_min=25 / scenecut=0 / intra_refresh=0 / rc=abr / mbtree=0 / bitrate=4096 / ratetol=1.0 / qcomp=0.60 / qpmin=10 / qpmax=51 / qpstep=4 / ip_ratio=1.40 / aq=1:1.00Default : YesForced : No

Audio #1ID : 2Format : AACFormat/Info : Advanced Audio CodecFormat profile : LCCodec ID : A_AACDuration : 14 min 37 sBit rate : 256 kb/sChannel(s) : 2 channelsChannel positions : Front: L RSampling rate : 48.0 kHzFrame rate : 46.875 FPS (1024 spf)Compression mode : LossyDelay relative to video : 9 msStream size : 26.8 MiB (6%)Language : RussianDefault : YesForced : Yes

Audio #2ID : 3Format : AACFormat/Info : Advanced Audio CodecFormat profile : LCCodec ID : A_AACDuration : 14 min 37 sBit rate : 73.8 kb/sChannel(s) : 2 channelsChannel positions : Front: L RSampling rate : 44.1 kHzFrame rate : 43.066 FPS (1024 spf)Compression mode : LossyStream size : 7.72 MiB (2%)Language : EnglishDefault : NoForced : No


Трекер:  [ 09-Окт-2017 04:54 ]

  

Скачать .torrent

Размер .torrent файла 14 KB


Размер: 2.62 GB
Хэш (hash) релиза: 8540909b57de4f2ac69a37c066dbe980529e162a
Подписка на обновления:

Еще никто не оставлял запись к записи скачать торрент Шоу Цианид и Счастье The Cyanide & Happiness Show . Будь первым!

!Обратная связь