Скачать через торрент По волне моей памяти Фильм бесплатно в хорошем качестве torrent

Скачивайте на UnionPeer.org фильмы через торрент без регистрации. Новинки кино в хорошем качестве через торрент. На UnionPeer.org можно скачать через торрент фильмы 2014 и 2015 годов. Самые новые фильмы.

Скачать торрент По волне моей памяти бесплатно через .torrent фильм мультфильм сериал

Если у вас наблюдаются проблемы со скриншотами, переходом по ссылками, скачиванием торрентов - проблемы в блокировщике рекламы AdBlock. #хорошегоДня!


Статистика раздачи
Размер:  1.69 GB   |    Зарегистрирован:  12 дней   |    .torrent скачан:  2 раза   |   
Раздают:  1  
   
Загрузка...
 
Автор Сообщение

Galfimbul

avatar Galfimbul


По волне моей памяти. Выпуски за 2008 год (Олег Нестеров). Часть - 2Страна: Россия
Жанр: Ток-шоу, Интервью, Телепередача
Продолжительность: ~ 00:50:00 (каждый выпуск)
Язык: Русский
Год выпуска: 2008 г.
Выпущено: Россия, ЗАО «Первый канал. Всемирная сеть».

Описание: Эксклюзивные интервью с легендарными музыкантами. Новые встречи с любимыми героями советской и российской музыкальной сцены.
Это - непринужденный разговор о любимой музыке, воспитавшей несколько поколений - с ее создателями. Те люди, которые формировали музыкальное мировоззрение целой страны расскажут нам о своей работе, интересных историях, связанных с самыми известными произведениями и поделятся планами на будущее.Ведущий: Олег Нестеров.Содержание
01. Группа «Аракс»;
02. Игорь Саруханов.Источник: Собственный рип

Доп. информация: Рип чистый. Без посторонних надписей. Выкладывается как есть.


Качество: DVB
Контейнер: TS
Видео кодек: H.264
Аудио кодек: MP2
Видео: AVC, 720x576 (@1047x576), 16:9, 25.00fps, ~2 241 Kbps, 0.216 bit/pixel
Аудио: MPEG Audio 48000Hz stereo 192 Кбит/сек
<div class="sp-wrap">
<div class="sp-head folded">Группа «Аракс» (~ 00:43:05)</div>
<div class="sp-body">
Гость выпуска:Популярность к группе «Аракс» пришла в конце 70-х годов, благодаря работе с такими именитыми композиторами, как Алексей Рыбников, Александр Зацепин и Юрий Антонов.

На тот момент «Аракс» уже существовал шесть или семь лет в качестве студенческого коллектива, а потом ансамбля в театре ленинского комсомола. Приобретя некую известность, участники группы отправились на гастроли, которые длились в общей сложности 12 лет. До тех пор, пока Министерство культуры не запретило существование этого коллектива, и даже само название «Аракс» было отовсюду вычеркнуто. Запретили группу на пике популярности, и о ней быстро забыли. Но «Аракс» возродился буквально из пепла, а как это произошло, расскажут Анатолий Абрамовбарабанщик легендарного коллектива — и новый голос «Аракса»Василий Савченко.Качество: DVB
Контейнер: TS
Видео кодек: H.264
Аудио кодек: MP2
Видео: AVC, 720x576 (@1047x576), 16:9, 25.00fps, 2 243 Kbps, 0.216 bit/pixel
Аудио: MPEG Audio 48000Hz stereo 192 Кбит/сек
<div class="sp-wrap">
<div class="sp-head folded">Отчёт MediaInfo</div>
<div class="sp-body">

ОбщееИдентификатор : 1 (0x1)Полное имя : G:\Раздачи\Программы, передачи, шоу, спектакли\По волне моей памяти\По волне моей памяти - 2008 (часть 2)\По волне моей памяти. Группа «Аракс» (2008, DVB, Ток-шоу, Интервью, Эфир от 05.10.2017) (by Nokia5150).tsФормат : MPEG-TSРазмер файла : 790 МбайтПродолжительность : 43 м. 5 с.Режим общего битрейта : ПеременныйОбщий поток : 2563 Кбит/сек

ВидеоИдентификатор : 301 (0x12D)Идентификатор меню : 1 (0x1)Формат : AVCФормат/Информация : Advanced Video CodecПрофиль формата : Main@L3Параметр CABAC формата : ДаПараметр RefFrames формата : 3 кадраИдентификатор кодека : 27Продолжительность : 43 м. 4 с.Битрейт : 2243 Кбит/секШирина : 720 пикселейВысота : 576 пикселейСоотношение сторон : 16:9Частота кадров : 25,000 кадров/секСтандарт вещания : ComponentЦветовое пространство : YUVСубдискретизация насыщенности : 4:2:0Битовая глубина : 8 битТип развёртки : ЧересстрочнаяМетод сохранения типа развёртки : Раздельные поляПорядок развёртки : Верхнее поле первоеБит/(Пиксели*Кадры) : 0.216Размер потока : 691 Мбайт (87%)Цветовой диапазон : LimitedОсновные цвета : BT.601 PALХарактеристики трансфера : BT.470 System B, BT.470 System GКоэффициенты матрицы : BT.470 System B, BT.470 System G

АудиоИдентификатор : 302 (0x12E)Идентификатор меню : 1 (0x1)Формат : MPEG AudioВерсия формата : Version 1Профиль формата : Layer 2Идентификатор кодека : 3Продолжительность : 43 м. 5 с.Вид битрейта : ПостоянныйБитрейт : 192 Кбит/секКаналы : 2 каналаЧастота : 48,0 КГцМетод сжатия : С потерямиРазмер потока : 59,2 Мбайт (7%)Язык : English
</div>
</div>
Гость выпуска:Больше всего на свете отец Игоря Саруханова, ученый, боялся, что сын станет музыкантом...

Настоял, чтобы юношу приняли в технический вуз, в котором сам преподавал. Воспитывали сына в строгости. Игорь и помыслить не мог ослушаться папу: его слово — закон. Поэтому, после окончания музыкальной школы по классу классической гитары, Саруханову пришлось несколько лет промучиться в институте. Все это время, чтобы не сойти с ума от скучнейших формул, молодой человек увлеченно слушал любимую музыку: «Beatles», «Led Zeppelin», «Deep Purple», группу Стаса Намина «Цветы». И однажды Игорь торжественно объявил родителям, что решил бросить институт. Даже страшный скандал дома, и возмущение отца не изменили этого решения. На вопрос, кем же он намерен стать, ответил смело и дерзко: «Музыкантом, настоящим гитаристом!» И спустя четыре года Игорь играл в любимом ансамбле «Цветы».Качество: DVB
Контейнер: TS
Видео кодек: H.264
Аудио кодек: MP2
Видео: AVC, 720x576 (@1047x576), 16:9, 25.00fps, 2 241 Kbps, 0.216 bit/pixel
Аудио: MPEG Audio 48000Hz stereo 192 Кбит/сек
<div class="sp-wrap">
<div class="sp-head folded">Отчёт MediaInfo</div>
<div class="sp-body">

ОбщееИдентификатор : 1 (0x1)Полное имя : G:\Раздачи\Программы, передачи, шоу, спектакли\По волне моей памяти\По волне моей памяти - 2008\По волне моей памяти. Игорь Саруханов (2008, DVB, Ток-шоу, Интервью, Эфир от 04.10.2017) (by Nokia5150).tsФормат : MPEG-TSРазмер файла : 938 МбайтПродолжительность : 51 м. 10 с.Режим общего битрейта : ПеременныйОбщий поток : 2562 Кбит/сек

ВидеоИдентификатор : 2607 (0xA2F)Идентификатор меню : 607 (0x25F)Формат : AVCФормат/Информация : Advanced Video CodecПрофиль формата : Main@L3Параметр CABAC формата : ДаПараметр RefFrames формата : 3 кадраИдентификатор кодека : 27Продолжительность : 51 м. 9 с.Битрейт : 2241 Кбит/секШирина : 720 пикселейВысота : 576 пикселейСоотношение сторон : 16:9Частота кадров : 25,000 кадров/секСтандарт вещания : ComponentЦветовое пространство : YUVСубдискретизация насыщенности : 4:2:0Битовая глубина : 8 битТип развёртки : ЧересстрочнаяМетод сохранения типа развёртки : Раздельные поляПорядок развёртки : Верхнее поле первоеБит/(Пиксели*Кадры) : 0.216Размер потока : 820 Мбайт (87%)Цветовой диапазон : LimitedОсновные цвета : BT.601 PALХарактеристики трансфера : BT.470 System B, BT.470 System GКоэффициенты матрицы : BT.470 System B, BT.470 System G

АудиоИдентификатор : 3607 (0xE17)Идентификатор меню : 607 (0x25F)Формат : MPEG AudioВерсия формата : Version 1Профиль формата : Layer 2Идентификатор кодека : 3Продолжительность : 51 м. 9 с.Вид битрейта : ПостоянныйБитрейт : 192 Кбит/секКаналы : 2 каналаЧастота : 48,0 КГцМетод сжатия : С потерямиЗадержка видео : -120 мс.Размер потока : 70,3 Мбайт (7%)Язык : English
</div>
</div>
</div>
</div>
Внимание! Раздача ведётся путём добавления новых выпусков; при каждом добавлении создаётся новый торрент. Чтобы начать докачку нового выпуска, пользователям необходимо сделать следующее:
(1) остановить скачивание,
(2) удалить старый торрент у себя из клиента (старые выпуски удалять не надо),
(3) скачать новый торрент и запустить его у себя в клиенте вместо старого, при этом указать клиенту путь в старую папку куда и должно происходить скачивание новых выпусков.
Ваш клиент при этом должен произвести хеширование (проверку) старой папки (если не производит сам - помогите ему сделать это), и будет докачивать только те выпуски которых у вас ещё нет. Старые выпуски при этом не удаляются, а продолжают раздаваться!
Eсли вы уже удалили старые выпуски, то предотвратить повторную закачку старых выпусков можно, отжав галочку в соответсвующих местах при запуске нового торрента. По возможности, желательно не удалять старые выпуски как можно дольше чтобы релизёр не столько продолжал раздавать старые выпуски, а смог сконцентрироваться на новых.


Трекер:  [ 09-Окт-2017 03:12 ]

  

Скачать .torrent

Размер .torrent файла 17 KB


Размер: 1.69 GB
Хэш (hash) релиза: ffcdeee57264e2bf9c8f951a02dfe8535eb88e53
Подписка на обновления:

Торренты, похожие на По волне моей памяти скачать торрент

Форум Название Автор Размер S L Добавлен
Документальные фильмы и телепередачи ·· По волне моей памяти (Олег Нестеров) (Выпуски за 2014 год, 2 выпуска) [2014, Ток-шоу, Интервью, Телепередача, DVB] Galfimbul 20558209841.91 GB 0 0 1506608197

17:16

28-Сен-17

Документальные фильмы и телепередачи ·· По волне моей памяти (Олег Нестеров) (Выпуски за 2013 год, 6 выпусков) [2013, Ток-шоу, Интервью, Телепередача, DVB] Galfimbul 56336946685.25 GB 0 0 1506608188

17:16

28-Сен-17

Документальные фильмы и телепередачи ·· По волне моей памяти (Олег Нестеров) (Выпуски за 2012 год, 6 выпусков) [2012, Ток-шоу, Интервью, Телепередача, DVB] Galfimbul 59353684925.53 GB 0 0 1506608178

17:16

28-Сен-17

Документальные фильмы и телепередачи ·· По волне моей памяти (Олег Нестеров) (Выпуски за 2011 год, 4 выпуска) [2011, Ток-шоу, Интервью, Телепередача, DVB] Galfimbul 38559606523.59 GB 0 0 1506608168

17:16

28-Сен-17

Документальные фильмы и телепередачи ·· По волне моей памяти (Олег Нестеров) (Выпуски за 2010 год, 7 выпусков) [2010, Ток-шоу, Интервью, Телепередача, DVB] Galfimbul 67480109006.28 GB 0 0 1506608158

17:15

28-Сен-17

Документальные фильмы и телепередачи ·· По волне моей памяти (Олег Нестеров) (Выпуски за 2009 год, 11 выпусков) [2009, Ток-шоу, Интервью, Телепередача, DVB] Galfimbul 1084158362410.1 GB 0 0 1506608148

17:15

28-Сен-17

Документальные фильмы и телепередачи ·· По волне моей памяти (Олег Нестеров) (Выпуски за 2007 год, 9 выпусков) [2007, Ток-шоу, Интервью, Телепередача, DVB] Galfimbul 93471956888.71 GB 0 0 1506608138

17:15

28-Сен-17

Документальные фильмы и телепередачи ·· По волне моей памяти (Олег Нестеров) (Выпуски за 2008 год, 15 выпусков)[2008, Ток-шоу, Интервью, Телепередача, DVB] Galfimbul 1472458600813.71 GB 0 0 1506523519

17:45

27-Сен-17

Документальные фильмы и телепередачи ·· По Волне Моей Памяти (Олег Нестеров) ч.1 [Телепередача. TVRip] Galfimbul 45244887044.21 GB 0 0 1500264783

07:13

17-Июл-17

Документальные фильмы и телепередачи ·· По Волне Моей Памяти. Золотой Винил (Олег Нестеров) ч.22 [2010. Телепередача. TVRip] Galfimbul 46704209924.35 GB 0 0 1435174366

22:32

24-Июн-15

Документальные фильмы и телепередачи ·· По волне моей памяти. Батырхан Шукенов [2009, Документальный, биография, музыка, беседа, SATRip] Galfimbul 628071172599 MB 0 0 1430415438

20:37

30-Апр-15

Документальные фильмы и телепередачи ·· По Волне Моей Памяти. Золотой Винил (Олег Нестеров) ч.37 [2013-2014. Телепередача. IPTVRip] Galfimbul 46796328964.36 GB 0 0 1421179964

23:12

13-Янв-15

Документальные фильмы и телепередачи ·· По Волне Моей Памяти. Золотой Винил (Олег Нестеров) ч.31 [2011-2013. Телепередача. IPTVRip] Galfimbul 46780252164.36 GB 0 0 1418855388

01:29

18-Дек-14

Документальные фильмы и телепередачи ·· По Волне Моей Памяти. Золотой Винил (Олег Нестеров) ч.32 [2012-2014. Телепередача. IPTVRip] Galfimbul 46296760324.31 GB 0 0 1418855382

01:29

18-Дек-14

Документальные фильмы и телепередачи ·· По Волне Моей Памяти. Золотой Винил (Олег Нестеров) ч.33 [2011-2014. Телепередача. IPTVRip] Galfimbul 46707445764.35 GB 0 0 1418855357

01:29

18-Дек-14

Документальные фильмы и телепередачи ·· По Волне Моей Памяти. Золотой Винил (Олег Нестеров) ч.35 [2010-2014. Телепередача. IPTVRip] Galfimbul 45459701764.23 GB 0 0 1418855280

01:28

18-Дек-14

Документальные фильмы и телепередачи ·· По волне моей памяти. Леонид Борткевич (2 части из 2) (Олег Нестеров) [2009, Документальный, биография, музыка, беседа, SATRip] Galfimbul 11951595521.11 GB 0 0 1381006723

23:58

5-Окт-13

Документальные фильмы и телепередачи ·· Владимир Матецкий. По волне моей памяти (Олег Нестеров) [2012, Телепередача, DVB] Galfimbul 15093739521.41 GB 0 0 1373058791

00:13

6-Июл-13

Документальные фильмы и телепередачи ·· Александр Градский. По Волне Моей Памяти (Олег Нестеров) ч.1-2 [2012, Канал "ВРЕМЯ", Телепередача. TVRip] Galfimbul 12191764481.14 GB 0 0 1362516621

23:50

5-Мар-13

Еще никто не оставлял запись к записи скачать торрент По волне моей памяти . Будь первым!

!Обратная связь