Скачать через торрент Садистская смесь Blend S бесплатно Аниме Все серии на русском torrent

Если у вас наблюдаются проблемы со скриншотами, переходом по ссылками, скачиванием торрентов - проблемы в блокировщике рекламы AdBlock. #хорошегоДня!


Статистика раздачи
Размер:  321 MB   |    Зарегистрирован:  13 дней   |    .torrent скачан:  6 раз   |   
Раздают:  1  
   
Загрузка...
 
Автор Сообщение

Galfimbul

avatar Galfimbul


Садистская смесь
Blend S
ブレンド・S

Страна: Япония
Год выпуска: 2017 г.
Жанр: комедия, повседневность
Тип: TV
Продолжительность: 12 эп. по ~24 мин.
Режиссер: Масуяма Рёдзи
Студия: A-1 PicturesРусские субтитры от SovetRomantica
Перевод: KuroKaze, ChocoVanillaОписание: Представьте себе заведение, в котором с радостью исполнят любую вашу фантазию. Вы, наверное, подумали о чём-то совсем неприличном, но главным местом действия нашего аниме является кафе «Зокусэй»! Главная отличительная черта этого кафе - ролевые игры. Каждый работник здесь исполняет свою особенную роль, вживается в неё на время рабочего дня, и уже имеет свою клиентуру, состоящую сплошь из любителей чего-нибудь необычненького. Хотите цундэрэ? Пожалуйста, есть блондинка Кахи Хината. Младшая сестричка? В кафе есть Мафую Хошикава, моложавая студентка колледжа. А может, вам нравятся старшие сёстры или вообще айдолы?

16-летняя Майка Сакураномия была в поисках работы, и по воле судьбы отворила дверь «Зокусэй». Проблема Майки в том, что она вечно угрюма, и из-за этого недостатка не может понравиться работодателям. Она была уверена, что её выставят за дверь и в этот раз, но владельцу пришлась по душе её внешность. Майка идеально подходит на роль садистки, нового амплуа в нашумевшем кафе. Нововведение позволит расширить клиентуру, а для Майки это будет новым вызовом к самой себе. Сумеет ли она справиться с этой сложной ролью?Информационные ссылки: AniDB | MyAnimeList | World ArtКачество: HDTVRip
Тип релиза: Без хардсаба
Формат видео: MP4
Наличие линковки: Нет
Релиз/Автор рипа: Ohys-Raws
Видео: x264, 8 bit, 1280x720, ~1664 Kbps, 23.976 fps
Аудио (int): JAP, AAC, 48000 Hz, ~192 Kbps, 2 ch
Субтитры (ext): RUS, ASS
<div class="sp-wrap">
<div class="sp-head folded">MediaInfo</div>
<div class="sp-body">

Формат : MPEG-4Профиль формата : Base MediaИдентификатор кодека : isom (isom/iso2/avc1/mp41)Размер файла : 320 МбайтПродолжительность : 24 м. 0 с.Общий поток : 1863 Кбит/секДата кодирования : UTC 2017-10-07 16:03:57Дата пометки : UTC 2017-10-07 16:03:57Программа кодирования : ShanaEncoder

ВидеоИдентификатор : 1Формат : AVCФормат/Информация : Advanced Video CodecПрофиль формата : Main@L4.1Параметр CABAC формата : ДаПараметр ReFrames формата : 4 кадраИдентификатор кодека : avc1Идентификатор кодека/Информация : Advanced Video CodingПродолжительность : 24 м. 0 с.Битрейт : 1664 Кбит/секШирина : 1280 пикселейВысота : 720 пикселейСоотношение сторон : 16:9Режим частоты кадров : ПеременныйЧастота кадров : 23,976 (24000/1001) кадра/секМинимальная частота кадров : 14,925 кадров/секМаксимальная частота кадров : 24,390 кадра/секЦветовое пространство : YUVСубдискретизация насыщенности : 4:2:0Битовая глубина : 8 битТип развёртки : ПрогрессивнаяБит/(Пиксели*Кадры) : 0.075Размер потока : 286 Мбайт (89%)Библиотека кодирования : x264 core 152 r2851+58 429492e t_mod_Custom [8-bit@all X86_64]Настройки программы : cabac=1 / ref=3 / deblock=1:0:0 / analyse=0x1:0x111 / me=hex / subme=7 / psy=1 / fade_compensate=0.00 / psy_rd=1.00:0.00 / mixed_ref=1 / me_range=16 / chroma_me=1 / trellis=1 / 8x8dct=0 / cqm=0 / deadzone=21,11 / fast_pskip=1 / chroma_qp_offset=-2 / threads=18 / lookahead_threads=3 / sliced_threads=0 / nr=0 / decimate=1 / interlaced=0 / bluray_compat=0 / constrained_intra=0 / fgo=0 / bframes=3 / b_pyramid=2 / b_adapt=1 / b_bias=0 / direct=1 / weightb=1 / open_gop=0 / weightp=2 / keyint=240 / keyint_min=1 / scenecut=40 / intra_refresh=0 / rc_lookahead=40 / rc=crf / mbtree=1 / crf=20.0000 / qcomp=0.60 / qpmin=0:0:0 / qpmax=69:69:69 / qpstep=4 / ip_ratio=1.40 / aq=1:1.50 / aq-sensitivity=10.00 / aq-factor=1.00:1.00:1.00 / aq2=0 / aq3=0Дата кодирования : UTC 2017-10-07 16:03:57Дата пометки : UTC 2017-10-07 16:03:57Цветовой диапазон : LimitedОсновные цвета : BT.709Характеристики трансфера : BT.709Коэффициенты матрицы : BT.709

АудиоИдентификатор : 2Формат : AACФормат/Информация : Advanced Audio CodecПрофиль формата : LCИдентификатор кодека : 40Продолжительность : 24 м. 0 с.Вид битрейта : ПостоянныйБитрейт : 192 Кбит/секКаналы : 2 каналаРасположение каналов : Front: L RЧастота : 48,0 КГцЧастота кадров : 46,875 кадров/сек (1024 spf)Метод сжатия : С потерямиРазмер потока : 32,9 Мбайт (10%)Default : ДаAlternateGroup/String : 1Дата кодирования : UTC 2017-10-07 16:03:57Дата пометки : UTC 2017-10-07 16:03:57
</div>
</div>
01. First-Time Super Sadist
02.


Трекер:  [ 09-Окт-2017 00:01 ]

  

Скачать .torrent

Размер .torrent файла 2 KB


Размер: 321 MB
Хэш (hash) релиза: 337403c519cf8d9076c100da5e07902db581e745
Подписка на обновления:

Еще никто не оставлял запись к записи скачать торрент Садистская смесь Blend S . Будь первым!

!Обратная связь