Скачать через торрент Игра в бисер с Игорем Волгиным Фильм бесплатно в хорошем качестве torrent

Скачивайте на UnionPeer.org фильмы через торрент без регистрации. Новинки кино в хорошем качестве через торрент. На UnionPeer.org можно скачать через торрент фильмы 2014 и 2015 годов. Самые новые фильмы.

Скачать торрент Игра в бисер с Игорем Волгиным бесплатно через .torrent фильм мультфильм сериал

Если у вас наблюдаются проблемы со скриншотами, переходом по ссылками, скачиванием торрентов - проблемы в блокировщике рекламы AdBlock. #хорошегоДня!


Статистика раздачи
Размер:  1.67 GB   |    Зарегистрирован:  13 дней   |    .torrent скачан:  2 раза   |   
Раздают:  1  
   
Загрузка...
 
Автор Сообщение

Galfimbul

avatar Galfimbul


Игра в бисер с Игорем Волгиным

Дата/Год выпуска: 2017 - 2018
Страна: Россия
Жанр: Ток-шоу
Продолжительность: ~ 00:39:00 выпуск
Перевод: Не требуется
Режиссер: Андрей Туринов

Телеканал: Россия Культура
Описание: Ведущий ток-шоу Игорь Волгин приглашает поучастовать в своеобразной игре для всех, кто воспринимает мировую литературу как уже написанную книгу, которую никто и никогда не постигнет до конца, и, тем не менее, каждое новое прочтение удивительно.

Когда мы говорим, что классика всегда современна, мы не задумываемся, что именно в созданном десятилетия, а то и века назад художественном произведении созвучно дню сегодняшнему, представлению современного человека о себе самом. Участники ток-шоу "Игра в бисер" с Игорем Волгиным пытаются найти ответы на этот вопрос и, заглянув в лучшие образцы мировой литературы, понять - кто мы и что мы.

Доп. информация: Все раздачи программы http://rutracker.org/forum/tracker.php?nm=%C8%E3%F0...1&f%5B%5D=-1
качество: DVB
формат: TS/M2TS
Видео: Advanced Video Codec, 768@720x576, 4:3, 1271 kbps, 0.123 bit/pixel, 25 fps
Аудио: MPEG-1 Layer 2, 192 Кбит/сек, 48000Hz 2 ch
2017-09-09. М. Салтыков-Щедрин - История одного города
2017-09-16. Роберт Пенн Уоррен - Вся королевская рать
2017-09-23. Н.В. Гоголь - Вий
2017-09-30. Виктор Некрасов - В окопах Сталинграда
ОбщееИдентификатор : 1 (0x1)Полное имя : D:\Видео\Игра в бисер c Игорем Волгиным. Сезон 2017-2018\2017-09-09. М. Салтыков-Щедрин - История одного города.tsФормат : MPEG-TSРазмер файла : 430 МбайтПродолжительность : 38 м.Режим общего битрейта : ПеременныйОбщий поток : 1541 Кбит/сек

ВидеоИдентификатор : 205 (0xCD)Идентификатор меню : 1005 (0x3ED)Формат : AVCФормат/Информация : Advanced Video CodecПрофиль формата : High@L3.0Параметр CABAC формата : ДаПараметр ReFrames формата : 4 кадраИдентификатор кодека : 27Продолжительность : 38 м.Битрейт : 1271 Кбит/секШирина : 720 пикселейВысота : 576 пикселейСоотношение сторон : 4:3Частота кадров : 25,000 кадров/секСтандарт вещания : ComponentЦветовое пространство : YUVСубдискретизация насыщенности : 4:2:0Битовая глубина : 8 битТип развёртки : ЧересстрочнаяПорядок развёртки : Верхнее поле первоеБит/(Пиксели*Кадры) : 0.123Размер потока : 355 Мбайт (82%)Основные цвета : BT.601 PALХарактеристики трансфера : BT.470 System B, BT.470 System GКоэффициенты матрицы : BT.601colour_range : Limited

АудиоИдентификатор : 305 (0x131)Идентификатор меню : 1005 (0x3ED)Формат : MPEG AudioВерсия формата : Version 1Профиль формата : Layer 2Идентификатор кодека : 3Продолжительность : 38 м.Вид битрейта : ПостоянныйБитрейт : 192 Кбит/секКаналы : 2 каналаЧастота : 48,0 КГцМетод сжатия : С потерямиЗадержка видео : -40 мс.Размер потока : 53,6 Мбайт (12%)Язык : Russian


Трекер:  [ 08-Окт-2017 21:12 ]

  

Скачать .torrent

Размер .torrent файла 17 KB


Размер: 1.67 GB
Хэш (hash) релиза: 7553bbdf188392115995f74f53cb23f5b4ce9907
Подписка на обновления:

Торренты, похожие на Игра в бисер с Игорем Волгиным скачать торрент

Форум Название Автор Размер S L Добавлен
Документальные фильмы и телепередачи ·· Игра в бисер с Игорем Волгиным (Андрей Туринов)[2016 - 2017, Ток-шоу, DVB] Обновлено 30.05.2017 Galfimbul 2000668608418.63 GB 0 0 1497031399

21:03

9-Июн-17

Документальные фильмы и телепередачи ·· Игра в бисер с Игорем Волгиным (Андрей Туринов)[2016 - 2017, Ток-шоу, DVB] Обновлено 20.12.2016 Galfimbul 105899636729.86 GB 0 0 1482266267

23:37

20-Дек-16

Документальные фильмы и телепередачи ·· Игра в бисер с Игорем Волгиным (Андрей Туринов)[2016 - 2017, Ток-шоу, DVB] Обновлено 14.12.2016 Galfimbul 98396568009.16 GB 0 0 1481708068

12:34

14-Дек-16

Документальные фильмы и телепередачи ·· Игра в бисер с Игорем Волгиным (Андрей Туринов)[2016 - 2017, Ток-шоу, DVB] Обновлено 03.12.2016 Galfimbul 91505262568.52 GB 0 0 1480792082

22:08

3-Дек-16

Документальные фильмы и телепередачи ·· Игра в бисер с Игорем Волгиным (Андрей Туринов)[2016 - 2017, Ток-шоу, DVB] Обновлено 26.11.2016 Galfimbul 83780090647.8 GB 0 0 1480186184

21:49

26-Ноя-16

Документальные фильмы и телепередачи ·· Игра в бисер с Игорем Волгиным (Андрей Туринов)[2016 - 2017, Ток-шоу, DVB] Обновлено 20.11.2016 Galfimbul 74774937646.96 GB 0 0 1479631465

11:44

20-Ноя-16

Документальные фильмы и телепередачи ·· Игра в бисер с Игорем Волгиным (Андрей Туринов)[2016 - 2017, Ток-шоу, DVB] Обновлено 05.11.2016 Galfimbul 66123147566.16 GB 0 0 1478360555

18:42

5-Ноя-16

Документальные фильмы и телепередачи ·· Игра в бисер с Игорем Волгиным (Андрей Туринов)[2016 - 2017, Ток-шоу, DVB] Обновлено 29.10.2016 Galfimbul 56618068725.27 GB 0 0 1477754202

18:16

29-Окт-16

Документальные фильмы и телепередачи ·· Игра в бисер с Игорем Волгиным (Андрей Туринов)[2016 - 2017, Ток-шоу, DVB] Обновлено 22.10.2016 Galfimbul 48634658124.53 GB 0 0 1477256328

23:58

23-Окт-16

Документальные фильмы и телепередачи ·· Игра в бисер с Игорем Волгиным (Андрей Туринов)[2016 - 2017, Ток-шоу, DVB] Обновлено 15.10.2016 Galfimbul 59959319925.58 GB 0 0 1476543595

17:59

15-Окт-16

Документальные фильмы и телепередачи ·· Игра в бисер с Игорем Волгиным (Андрей Туринов)[2016 - 2017, Ток-шоу, DVB] Обновлено 08.10.2016 Galfimbul 51375687364.78 GB 0 0 1475940664

18:31

8-Окт-16

Документальные фильмы и телепередачи ·· Игра в бисер с Игорем Волгиным (Андрей Туринов)[2016 - 2017, Ток-шоу, DVB] Обновлено 02.10.2016 Galfimbul 41381596083.85 GB 0 0 1475416326

16:52

2-Окт-16

Документальные фильмы и телепередачи ·· Игра в бисер с Игорем Волгиным (Андрей Туринов)[2016 - 2017, Ток-шоу, DVB] Обновлено 24.09.2016 Galfimbul 30976670282.88 GB 0 0 1474742737

21:45

24-Сен-16

Документальные фильмы и телепередачи ·· Игра в бисер с Игорем Волгиным (Андрей Туринов)(1 выпуск)[2016 - 2017, Ток-шоу, DVB] Galfimbul 848885760810 MB 0 0 1473678252

14:04

12-Сен-16

Документальные фильмы и телепередачи ·· Игра в бисер с Игорем Волгиным (Андрей Туринов) [2015 - 2016, Ток-шоу, DVB] Обновлено 14.06.2016 Galfimbul 3094005555228.82 GB 0 0 1465935392

23:16

14-Июн-16

Документальные фильмы и телепередачи ·· Игра в бисер с Игорем Волгиным (Андрей Туринов) [2015 - 2016, Ток-шоу, DVB] Обновлено 08.06.2016 Galfimbul 3004453683227.98 GB 0 0 1465337423

01:10

8-Июн-16

Документальные фильмы и телепередачи ·· Игра в бисер с Игорем Волгиным (Андрей Туринов) [2015 - 2016, Ток-шоу, DVB] Обновлено 25.05.2016 Galfimbul 2784938393625.94 GB 0 0 1464151269

07:41

25-Май-16

Документальные фильмы и телепередачи ·· Игра в бисер с Игорем Волгиным (Андрей Туринов) [2015 - 2016, Ток-шоу, DVB] Обновлено 18.05.2016 Galfimbul 2690299289625.06 GB 0 0 1463582405

17:40

18-Май-16

Документальные фильмы и телепередачи ·· Игра в бисер с Игорем Волгиным (Андрей Туринов) [2015 - 2016, Ток-шоу, DVB] Обновлено 26.04.2016 Galfimbul 2607995699224.29 GB 0 0 1461705404

00:16

27-Апр-16

Еще никто не оставлял запись к записи скачать торрент Игра в бисер с Игорем Волгиным . Будь первым!

!Обратная связь