American Dad torrent

UnionPeer.org . . UnionPeer.org 2014 2015 . .

American Dad .torrent

, , - AdBlock. #!


1.83 GB   |    :  14    |    .torrent :  12    |   
1  
   
...
 

Galfimbul

avatar Galfimbul


/ American Dad
: 2016
:
: Twentieth Century Fox Film Corporation
: , , , ,
: ~20 ()

( ) "Jaskier" | , , |
( ) "ROOM13" | , , |
( ) Filiza Studio | (Little), (Nika Lenina) |

: / Seth MacFarlane : , , , , .: . , , . . . . , . , . . ( , ). , , , , .
, . -, . , . . - 51 . . . : V.SERIJ2013 v.serij2013 (.., ) .: WEB-DL 1080p
: MKV
: H.264
: AC3
: H.264, 1916x1076 (16:9), 25.000 fps, ~5206 kbps, 0.101 bit/pixel
:

|Jaskier|: AC3, 48 kHz, 2 ch, 192 kbps
|2x2|: AC3, 48 kHz, 2 ch, 192 kbps
|Filiza Studio|: AC3, 48 kHz, 6 ch, 384 kbps
||: AC3, 48 kHz, 6 ch, 384 kbps

: \ [b]
01. Roots
02. The Life Aquatic with Steve Smith
General
Unique ID : 189155734611137585400742767104810364129 (0x8E4E11C08786B9DBB2C0D8A8C1F12CE1)
Complete name : E:\Video\HD\Animated Series (HD)\American.Dad.S12.1080p.WEB-DL.DD5.1.H.264-v.serij2013\American.Dad.S12E01.Roots.1080p.WEB-DL.DD5.1.H.264-v.serij2013.mkv
Format : Matroska
Format version : Version 4 / Version 2
File size : 924 MiB
Duration : 20 min 17 s
Overall bit rate : 6 364 kb/s
Encoded date : UTC 2017-10-08 14:06:21
Writing application : mkvmerge v8.8.0 ('Wind at my back') 32bit
Writing library : libebml v1.3.3 + libmatroska v1.4.4

Video
ID : 1
Format : AVC
Format/Info : Advanced Video Codec
Format profile : High@L4
Format settings, CABAC : Yes
Format settings, ReFrames : 4 frames
Codec ID : V_MPEG4/ISO/AVC
Duration : 20 min 17 s
Bit rate : 5 206 kb/s
Width : 1 916 pixels
Height : 1 076 pixels
Display aspect ratio : 16:9
Frame rate mode : Constant
Frame rate : 25.000 FPS
Color space : YUV
Chroma subsampling : 4:2:0
Bit depth : 8 bits
Scan type : Progressive
Bits/(Pixel*Frame) : 0.101
Stream size : 756 MiB (82%)
Language : English
Default : Yes
Forced : No
Color range : Limited
Color primaries : BT.709
Transfer characteristics : BT.709
Matrix coefficients : BT.709

Audio #1
ID : 2
Format : AC-3
Format/Info : Audio Coding 3
Mode extension : CM (complete main)
Format settings, Endianness : Big
Codec ID : A_AC3
Duration : 20 min 17 s
Bit rate mode : Constant
Bit rate : 192 kb/s
Channel(s) : 2 channels
Channel positions : Front: L R
Sampling rate : 48.0 kHz
Frame rate : 31.250 FPS (1536 spf)
Bit depth : 16 bits
Compression mode : Lossy
Stream size : 27.9 MiB (3%)
Title : MVO (Jaskier)
Language : Russian
Default : Yes
Forced : No

Audio #2
ID : 3
Format : AC-3
Format/Info : Audio Coding 3
Mode extension : CM (complete main)
Format settings, Endianness : Big
Codec ID : A_AC3
Duration : 20 min 17 s
Bit rate mode : Constant
Bit rate : 192 kb/s
Channel(s) : 2 channels
Channel positions : Front: L R
Sampling rate : 48.0 kHz
Frame rate : 31.250 FPS (1536 spf)
Bit depth : 16 bits
Compression mode : Lossy
Stream size : 27.9 MiB (3%)
Title : MVO (2x2)
Language : Russian
Default : No
Forced : No

Audio #3
ID : 4
Format : AC-3
Format/Info : Audio Coding 3
Mode extension : CM (complete main)
Format settings, Endianness : Big
Codec ID : A_AC3
Duration : 20 min 17 s
Bit rate mode : Constant
Bit rate : 384 kb/s
Channel(s) : 6 channels
Channel positions : Front: L C R, Side: L R, LFE
Sampling rate : 48.0 kHz
Frame rate : 31.250 FPS (1536 spf)
Bit depth : 16 bits
Compression mode : Lossy
Stream size : 55.7 MiB (6%)
Title : MVO (Filiza Studio)
Language : Russian
Default : No
Forced : No

Audio #4
ID : 5
Format : AC-3
Format/Info : Audio Coding 3
Mode extension : CM (complete main)
Format settings, Endianness : Big
Codec ID : A_AC3
Duration : 20 min 17 s
Bit rate mode : Constant
Bit rate : 384 kb/s
Channel(s) : 6 channels
Channel positions : Front: L C R, Side: L R, LFE
Sampling rate : 48.0 kHz
Frame rate : 31.250 FPS (1536 spf)
Bit depth : 16 bits
Compression mode : Lossy
Stream size : 55.7 MiB (6%)
Title : Original
Language : English
Default : No
Forced : No

Text
ID : 6
Format : UTF-8
Codec ID : S_TEXT/UTF8
Codec ID/Info : UTF-8 Plain Text
Duration : 20 min 10 s
Bit rate : 133 b/s
Count of elements : 453
Stream size : 19.8 KiB (0%)
Title : Original
Language : English
Default : No
Forced : No


 ·  , , FAQ-
:  [ 08--2017 18:24 ]

  

.torrent

.torrent 19 KB


: 1.83 GB
(hash) : 62a42d7b17fd97ad68476f438ac0b8f4e4336a73
:
··
...

American Dad . !

!