Скачать через торрент [DOC] Расследования авиакатастроф Mayday бесплатно русская версия torrent активатор

Если у вас наблюдаются проблемы со скриншотами, переходом по ссылками, скачиванием торрентов - проблемы в блокировщике рекламы AdBlock. #хорошегоДня!


Статистика раздачи
Размер:  1.34 GB   |    Зарегистрирован:  14 дней   |    .torrent скачан:  0 раз   |   
Раздают:  1  
   
Загрузка...
 
Автор Сообщение

Galfimbul

avatar Galfimbul


Расследования авиакатастроф / Mayday / Air Crash Investigation

Год выпуска: 2003
Страна: Канада, National Geographic
Жанр: Документальный

Сезон: 01
Серии: 1 - 6 из 6

Продолжительность: ~ 00:47:00
Перевод: Профессиональный (двухголосый закадровый)
Субтитры: нет

Режиссер: Тим Волочатюк, Джордж Д’Амато, Su Rynard, ...
В ролях: Стивен Богерт, Джонатан Арис, Грегори Файт, Дэниэл Парк, Джейсон Вейнберг, Билл Лэйк, Марти Моро, Деннис Акаяма, Джерри Мендичино, Хрант Альянак, ...

Описание: Реконструкция реальных воздушных катастроф, интервью с авиационным специалистами и очевидцами происшествий.



Рип от: Egorijj.Alien
Релиз от:

Исходник (ссылка): ...4591102

Качество: HDTVRip
Формат: MP4
Видео: AVC, 480x360, 580 kbps, 25 fps
Аудио:AAC, 2 ch, 48,0 khz, 128 kbps
GeneralComplete name : E:\Видео\Расследования авиакатастроф\Сезон 01\1-01 Незапертая дверь в смерть (Unlocking Disaster).mp4Format : MPEG-4Format profile : Base MediaCodec ID : isomFile size : 227 MiBDuration : 44mn 37sOverall bit rate mode : VariableOverall bit rate : 712 KbpsEncoded date : UTC 2017-10-07 21:08:34Tagged date : UTC 2017-10-07 21:08:34

VideoID : 1Format : AVCFormat/Info : Advanced Video CodecFormat profile : High@L2.2Format settings, CABAC : YesFormat settings, ReFrames : 8 framesCodec ID : avc1Codec ID/Info : Advanced Video CodingDuration : 44mn 37sBit rate : 580 KbpsMaximum bit rate : 2 587 KbpsWidth : 480 pixelsHeight : 360 pixelsDisplay aspect ratio : 4:3Frame rate mode : ConstantFrame rate : 25.000 fpsColor space : YUVChroma subsampling : 4:2:0Bit depth : 8 bitsScan type : ProgressiveBits/(Pixel*Frame) : 0.134Stream size : 185 MiB (81%)Writing library : x264 core 130 r2273 b3065e6Encoding settings : cabac=1 / ref=8 / deblock=1:0:0 / analyse=0x3:0x113 / me=hex / subme=8 / psy=1 / psy_rd=1.00:0.00 / mixed_ref=1 / me_range=16 / chroma_me=1 / trellis=1 / 8x8dct=1 / cqm=0 / deadzone=21,11 / fast_pskip=1 / chroma_qp_offset=-2 / threads=3 / lookahead_threads=1 / sliced_threads=0 / nr=0 / decimate=1 / interlaced=0 / bluray_compat=0 / constrained_intra=0 / bframes=8 / b_pyramid=2 / b_adapt=1 / b_bias=0 / direct=1 / weightb=1 / open_gop=0 / weightp=2 / keyint=250 / keyint_min=25 / scenecut=40 / intra_refresh=0 / rc_lookahead=40 / rc=2pass / mbtree=1 / bitrate=580 / ratetol=1.0 / qcomp=0.60 / qpmin=0 / qpmax=69 / qpstep=4 / cplxblur=20.0 / qblur=0.5 / ip_ratio=1.40 / aq=1:1.00Encoded date : UTC 2017-10-07 21:08:34Tagged date : UTC 2017-10-07 21:08:45

AudioID : 2Format : AACFormat/Info : Advanced Audio CodecFormat profile : LCCodec ID : 40Duration : 44mn 37sBit rate mode : VariableBit rate : 128 KbpsMaximum bit rate : 132 KbpsChannel(s) : 2 channelsChannel positions : Front: L RSampling rate : 48.0 KHzCompression mode : LossyStream size : 40.9 MiB (18%)Encoded date : UTC 2017-10-07 21:08:43Tagged date : UTC 2017-10-07 21:08:45


Трекер:  [ 08-Окт-2017 17:42 ]

  

Скачать .torrent

Размер .torrent файла 14 KB


Размер: 1.34 GB
Хэш (hash) релиза: 428f1467161e54973a3242a4dae8c9687c9c31c4

Еще никто не оставлял запись к записи скачать торрент [DOC] Расследования авиакатастроф Mayday . Будь первым!

!Обратная связь