Скачать через торрент Американский папаша! Американский папа! Фильм бесплатно в хорошем качестве torrent

Скачивайте на UnionPeer.org фильмы через торрент без регистрации. Новинки кино в хорошем качестве через торрент. На UnionPeer.org можно скачать через торрент фильмы 2014 и 2015 годов. Самые новые фильмы.

Скачать торрент Американский папаша! Американский папа! бесплатно через .torrent фильм мультфильм сериал

Если у вас наблюдаются проблемы со скриншотами, переходом по ссылками, скачиванием торрентов - проблемы в блокировщике рекламы AdBlock. #хорошегоДня!


Статистика раздачи
Размер:  6.61 GB   |    Зарегистрирован:  14 дней   |    .torrent скачан:  11 раз   |   
Раздают:  1  
   
Загрузка...
 
Автор Сообщение

Galfimbul

avatar Galfimbul


Американский папаша!
American Dad!Сезон 12Серии: 13-22 из 22
Страна: США
Производство: 20th Century Fox Television
Жанр: Мультфильм, фэнтези, комедия, приключения
Продолжительность: ~00:21:09
Года выпуска: 2016-2017
Перевод:

Любительский (многоголосый закадровый) | Студия WVoice
Оригинальная звуковая дорожка (English)

Русские субтитры: нет
Английские субтитры: естьРежиссёр: Сет МакФарлейн / Seth MacFarlaneСюжет мультсериала разворачивается вокруг семьи Смитов. Папа Стэн — агент ЦРУ и республиканец до мозга костей, силен телом, но глуп разумом. Имеет мужественнейший подбородок и всегда выглаженный костюм. Франсин — жена Стэна и мать детей. Типичная домохозяйка. В меру мудрая, в меру глупая. К тому же, не знает своих настоящих родителей. Сын — Стив. У него есть определенные проблемы в общении с противоположным полом (девушки с ним общаются порой, только под дулом табельного оружия отца). Дочь Хэйли — отчаянная либералка, имеет «хиппарские» черты, но хиппи не является, хоть и защищает природу, и принимает легкие наркотики. Семпл | Все раздачи мультсериалаКачество: WEB-DL 720p
Формат: MKV
Видео: 1280x720 (16:9) at 23.976 fps, High@L3.1, ~4000 kbps avg, ~0.178bpp
Аудио:

Russian: 48 kHz, AC3 Dolby Digital, 2.0 ch, ~192 kbps | Студия WVoice [без рекламы]
English: 48 kHz, AC3 Dolby Digital, 5.1 ch, ~384 kbps

Субтитры: English (*.srt)
GeneralUnique ID : 192550125080196382022373911116619532571 (0x90DBCE1F89F6F0B984276EB58D05491B)Complete name : \American DAD\American Dad - Season 12 (Web-dl l 720p l WVoice)\American.Dad.S12E22.West.to.Mexico.720p.WEB-DL-WVoice.mkvFormat : MatroskaFormat version : Version 4 / Version 2File size : 701 MiBDuration : 21 min 9 sOverall bit rate : 4 629 kb/sMovie name : West to MexicoEncoded date : UTC 2017-10-08 10:08:18Writing application : mkvmerge v16.0.0 ('Protest') 64-bitWriting library : libebml v1.3.5 + libmatroska v1.4.8Attachments : poster_american.dad.jpg

VideoID : 1Format : AVCFormat/Info : Advanced Video CodecFormat profile : High@L3.1Format settings, CABAC : NoFormat settings, ReFrames : 2 framesCodec ID : V_MPEG4/ISO/AVCDuration : 21 min 9 sBit rate : 4 051 kb/sWidth : 1 280 pixelsHeight : 718 pixelsDisplay aspect ratio : 16:9Frame rate mode : ConstantFrame rate : 23.976 (23976/1000) FPSColor space : YUVChroma subsampling : 4:2:0Bit depth : 8 bitsScan type : ProgressiveBits/(Pixel*Frame) : 0.184Stream size : 613 MiB (87%)Title : West to MexicoLanguage : EnglishDefault : YesForced : NoColor range : LimitedColor primaries : BT.709Transfer characteristics : BT.709Matrix coefficients : BT.709

Audio #1ID : 2Format : AC-3Format/Info : Audio Coding 3Mode extension : CM (complete main)Format settings, Endianness : BigCodec ID : A_AC3Duration : 21 min 9 sBit rate mode : ConstantBit rate : 192 kb/sChannel(s) : 2 channelsChannel positions : Front: L RSampling rate : 48.0 kHzFrame rate : 31.250 FPS (1536 spf)Bit depth : 16 bitsCompression mode : LossyStream size : 29.1 MiB (4%)Title : MVO WVoiceLanguage : RussianDefault : YesForced : No

Audio #2ID : 3Format : AC-3Format/Info : Audio Coding 3Mode extension : CM (complete main)Format settings, Endianness : BigCodec ID : A_AC3Duration : 21 min 9 sBit rate mode : ConstantBit rate : 384 kb/sChannel(s) : 6 channelsChannel positions : Front: L C R, Side: L R, LFESampling rate : 48.0 kHzFrame rate : 31.250 FPS (1536 spf)Bit depth : 16 bitsCompression mode : LossyStream size : 58.1 MiB (8%)Language : EnglishDefault : NoForced : No

TextID : 4Format : UTF-8Codec ID : S_TEXT/UTF8Codec ID/Info : UTF-8 Plain TextDuration : 21 min 2 sBit rate : 122 b/sCount of elements : 480Stream size : 18.8 KiB (0%)Language : EnglishDefault : NoForced : No

Menu00:00:00.000 : en:West to Mexico
(Полноразмерные скриншоты открываются кликом по миниатюре)
#213 Отцовское удивление / Father's Daze
#214 Бей и лети / Fight and Flight
#215 Просветление Рэджи-Баба / The Enlightenment of Ragi-Baba
#216 Портрет гениталий Франсин / Portrait of Francine's Genitals
#217 Багама мама / Bahama Mama
#218 Дитя Роджера / Roger's Baby
#219 Девяносто северной широты, ноль западной долготы / Ninety North, Zero West
#220 Ведьмы из Лэнгли / The Witches of Langley
#221 Полный слот любви / Whole Slotta Love
#222 Хорошая ночь для поездки / A Nice Night for a Drive
#223 Казино Нормаль / Casino Normale
#224 Базука Стив / Bazooka Steve
#225 Camp Campawanda
#226 Julia Rogerts
#227 The Life and Times of Stan Smith
#228 The Bitchin' Race
#229 Family Plan
#230 The Long Bomb
#231 Kloger
#232 Garbage Stan
#233 The Talented Mr. Dingleberry
#234 West to Mexico


Трекер:  [ 08-Окт-2017 13:24 ]

  

Скачать .torrent

Размер .torrent файла 18 KB


Размер: 6.61 GB
Хэш (hash) релиза: 1b2aa74e7efe55f56efcd8c56217a8faffc1ab14
Подписка на обновления:

Еще никто не оставлял запись к записи скачать торрент Американский папаша! Американский папа! . Будь первым!

!Обратная связь