Скачать через торрент Гаро: Тающая Линия Garo: Vanishing Line бесплатно Аниме Все серии на русском torrent

Если у вас наблюдаются проблемы со скриншотами, переходом по ссылками, скачиванием торрентов - проблемы в блокировщике рекламы AdBlock. #хорошегоДня!


Статистика раздачи
Размер:  646 MB   |    Зарегистрирован:  13 дней   |    .torrent скачан:  12 раз   |   
Раздают:  1  
   
Загрузка...
 
Автор Сообщение

Galfimbul

avatar Galfimbul


Гаро: Тающая Линия
Garo: Vanishing Line
牙狼<Garo> -Vanishing Line-

Страна: Япония
Год выпуска: 2017 г.
Жанр: приключения, фэнтези
Тип: TV
Продолжительность: 12 эп. по ~24 мин.
Режиссер: Пак Сон Ху
Студия: Русские субтитры от SovetRomantica
Перевод: Alex_DrakeОписание: Сюжет аниме переносит нас в некий город под названием Рассел. Жителям этого города вряд ли приходится на что-то жаловаться, он явно не относится к третьему миру, наоборот, город Рассел может похвастаться своим благосостоянием и высоким развитием. Но какая же бочка мёда без ложки дёгтя? Особенно, когда эта ложка в скором времени собирается испортить весь мёд до последней капли. Некая группа людей устроила заговор, результаты которого потрясут весь мир без исключения.

Парень по имени Сворд узнал об этом заговоре в самом его зачатке, и, пока никто из горожан ни о чём не догадывался, он пытался раскрыть этот замысел. Тем не менее, данные настолько засекречены, что единственной подсказкой становятся слова "Эльдорадо”. Посреди своих поисков, Сворд потерял сестру и повстречал единомышленницу по имени Софи, чей брат таинственно исчез, оставив Софи ломать голову над значением слова "Эльдорадо”. Они решили объединить свои силы, чтобы разгадать замысел, который, словно ржавчина, покрывает город Рассел, а также найти своих родных.Информационные ссылки: AniDB | MyAnimeList | World ArtКачество: HDTVRip
Тип релиза: Без хардсаба
Формат видео: MP4
Наличие линковки: Нет
Релиз/Автор рипа: Leopard-Raws
Видео: x264, 8 bit, 1280x720, ~3517 Kbps, 23.976 fps
Аудио (int): JAP, AAC, 48000 Hz, ~192 Kbps, 2 ch
Субтитры (ext): RUS, ASS
<div class="sp-wrap">
<div class="sp-head folded">MediaInfo</div>
<div class="sp-body">

Формат : MPEG-4Профиль формата : Base MediaИдентификатор кодека : isom (isom/avc1/iso6)Размер файла : 646 МбайтПродолжительность : 24 м. 19 с.Режим общего битрейта : ПеременныйОбщий поток : 3712 Кбит/секДата кодирования : UTC 2017-10-07 15:42:18Дата пометки : UTC 2017-10-07 15:42:18

ВидеоИдентификатор : 1Формат : AVCФормат/Информация : Advanced Video CodecПрофиль формата : High@L4.1Параметр CABAC формата : ДаПараметр ReFrames формата : 4 кадраИдентификатор кодека : avc1Идентификатор кодека/Информация : Advanced Video CodingПродолжительность : 24 м. 19 с.Битрейт : 3517 Кбит/секМаксимальный битрейт : 20,5 Мбит/секШирина : 1280 пикселейВысота : 720 пикселейСоотношение сторон : 16:9Режим частоты кадров : ПостоянныйЧастота кадров : 23,976 (24000/1001) кадра/секЦветовое пространство : YUVСубдискретизация насыщенности : 4:2:0Битовая глубина : 8 битТип развёртки : ПрогрессивнаяБит/(Пиксели*Кадры) : 0.159Размер потока : 612 Мбайт (95%)Заголовок : 264:fps=23.976@GPAC0.5.2-DEV-rev376-g5eeb74d-masterБиблиотека кодирования : x264 core 129 r2245+729M 1a52e03Настройки программы : cabac=1 / ref=4 / deblock=1:1:-1 / analyse=0x3:0x113 / me=umh / subme=9 / psy=1 / fade_compensate=0.00 / psy_rd=1.00:0.00 / mixed_ref=1 / me_range=24 / chroma_me=1 / trellis=2 / 8x8dct=1 / cqm=0 / deadzone=21,11 / fast_pskip=1 / chroma_qp_offset=-2 / threads=8 / lookahead_threads=1 / sliced_threads=0 / nr=0 / decimate=1 / interlaced=0 / bluray_compat=0 / constrained_intra=0 / fgo=0 / bframes=9 / b_pyramid=2 / b_adapt=2 / b_bias=0 / direct=1 / weightb=1 / open_gop=0 / weightp=2 / keyint=240 / keyint_min=24 / scenecut=40 / intra_refresh=0 / rc=crf / mbtree=0 / crf=17.5 / qcomp=0.72 / qpmin=0 / qpmax=69 / qpstep=4 / ip_ratio=1.40 / pb_ratio=1.30 / aq=1:0.85Дата кодирования : UTC 2017-10-07 15:42:18Дата пометки : UTC 2017-10-07 15:42:40Цветовой диапазон : LimitedОсновные цвета : BT.709Характеристики трансфера : BT.709Коэффициенты матрицы : BT.709

АудиоИдентификатор : 2Формат : AACФормат/Информация : Advanced Audio CodecПрофиль формата : LCИдентификатор кодека : 40Продолжительность : 24 м. 19 с.Вид битрейта : ПеременныйБитрейт : 192 Кбит/секМаксимальный битрейт : 223 Кбит/секКаналы : 2 каналаРасположение каналов : Front: L RЧастота : 48,0 КГцЧастота кадров : 46,875 кадров/сек (1024 spf)Метод сжатия : С потерямиРазмер потока : 33,4 Мбайт (5%)Язык : JapaneseДата кодирования : UTC 2017-10-06 19:51:29Дата пометки : UTC 2017-10-07 15:42:40
</div>
</div>
01. Sword
02.


Трекер:  [ 08-Окт-2017 12:01 ]

  

Скачать .torrent

Размер .torrent файла 2 KB


Размер: 646 MB
Хэш (hash) релиза: e3dab3d690d1a687d6cd22be8bf0f3f66153f50a
Подписка на обновления:

Еще никто не оставлял запись к записи скачать торрент Гаро: Тающая Линия Garo: Vanishing Line . Будь первым!

!Обратная связь