Скачать через торрент Фронт кровавой блокады бесплатно Аниме Все серии на русском torrent

Если у вас наблюдаются проблемы со скриншотами, переходом по ссылками, скачиванием торрентов - проблемы в блокировщике рекламы AdBlock. #хорошегоДня!


Статистика раздачи
Размер:  408 MB   |    Зарегистрирован:  13 дней   |    .torrent скачан:  10 раз   |   
Раздают:  1  
   
Загрузка...
 
Автор Сообщение

Galfimbul

avatar Galfimbul


Фронт кровавой блокады 2
Kekkai Sensen & Beyond
Blood Blockade Battlefront & Beyond
Bloodline Battlefront & Beyond
血界戦線 & Beyond

Страна: Япония
Год выпуска: 2017 г.
Жанр: приключения, фэнтези, комедия, сёнэн
Тип: TV
Продолжительность: 12 эп. по ~24 мин.
Режиссер: Такаянаги Сигэхито
Студия: BonesРусские субтитры от AniPlay
Перевод: SpectralSoulОписание: Привычная жизнь жителей Нью-Йорка завершилась в одно мгновение, а точнее за одну ночь. Нью-Йорк прекратил своё существование, и на его месте оказался мрачный город, покрытый туманом. Имя ему "Жребий Иерусалима”. Новый город связывает известную нам реальность, в которой живут обыкновенные люди, с незнакомым фантастическим миром, где обитают существа, которых мы могли бы увидеть только в фильмах. Всё происходящее в "Жребии Иерусалима” оказалось сложным для восприятия людей, и жить в этом городе способен далеко не каждый.

Никем не контролируемая сила всегда порождает хаос, так и случилось в новом таинственном городе. Чтобы сохранять баланс между добром и злом даже в таких условиях, была создана секретная организация "Либра”. Но люди вряд ли способны противостоять неведомым силам, поэтому в "Либре” состоят лишь обладатели суперспособностей. Но однажды в "Жребий Иерусалима” переезжает обычный парень по имени Леонард, который впоследствии становится членом этой секретной организации.Информационные ссылки: AniDB | MyAnimeList | World ArtКачество: HDTVRip
Тип релиза: Без хардсаба
Формат видео: MP4
Наличие линковки: Нет
Релиз/Автор рипа: Ohys-Raws
Видео: x264, 8 bit, 1280x720, ~2165 Kbps, 23.976 fps
Аудио (int): JAP, AAC, 48000 Hz, ~207 Kbps, 2 ch
Субтитры (ext): RUS, ASS
<div class="sp-wrap">
<div class="sp-head folded">MediaInfo</div>
<div class="sp-body">

Формат : MPEG-4Профиль формата : Base MediaИдентификатор кодека : isom (isom/avc1)Размер файла : 408 МбайтПродолжительность : 23 м. 59 с.Режим общего битрейта : ПеременныйОбщий поток : 2376 Кбит/секДата кодирования : UTC 2017-10-07 18:56:27Дата пометки : UTC 2017-10-07 18:56:27

ВидеоИдентификатор : 1Формат : AVCФормат/Информация : Advanced Video CodecПрофиль формата : Main@L4.1Параметр CABAC формата : ДаПараметр ReFrames формата : 4 кадраИдентификатор кодека : avc1Идентификатор кодека/Информация : Advanced Video CodingПродолжительность : 23 м. 59 с.Битрейт : 2165 Кбит/секМаксимальный битрейт : 12,2 Мбит/секШирина : 1280 пикселейВысота : 720 пикселейСоотношение сторон : 16:9Режим частоты кадров : ПостоянныйЧастота кадров : 23,976 (24000/1001) кадра/секЦветовое пространство : YUVСубдискретизация насыщенности : 4:2:0Битовая глубина : 8 битТип развёртки : ПрогрессивнаяБит/(Пиксели*Кадры) : 0.098Размер потока : 372 Мбайт (91%)Библиотека кодирования : x264 core 152 r2851+58 429492e t_mod_Custom [8-bit@all X86_64]Настройки программы : cabac=1 / ref=3 / deblock=1:0:0 / analyse=0x1:0x111 / me=hex / subme=7 / psy=1 / fade_compensate=0.00 / psy_rd=1.00:0.00 / mixed_ref=1 / me_range=16 / chroma_me=1 / trellis=1 / 8x8dct=0 / cqm=0 / deadzone=21,11 / fast_pskip=1 / chroma_qp_offset=-2 / threads=18 / lookahead_threads=3 / sliced_threads=0 / nr=0 / decimate=1 / interlaced=0 / bluray_compat=0 / constrained_intra=0 / fgo=0 / bframes=3 / b_pyramid=2 / b_adapt=1 / b_bias=0 / direct=1 / weightb=1 / open_gop=0 / weightp=2 / keyint=240 / keyint_min=1 / scenecut=40 / intra_refresh=0 / rc_lookahead=40 / rc=crf / mbtree=1 / crf=20.0000 / qcomp=0.60 / qpmin=0:0:0 / qpmax=69:69:69 / qpstep=4 / ip_ratio=1.40 / aq=1:1.50 / aq-sensitivity=10.00 / aq-factor=1.00:1.00:1.00 / aq2=0 / aq3=0Дата кодирования : UTC 2017-10-07 18:56:27Дата пометки : UTC 2017-10-07 18:56:30Цветовой диапазон : LimitedОсновные цвета : BT.709Характеристики трансфера : BT.709Коэффициенты матрицы : BT.709

АудиоИдентификатор : 2Формат : AACФормат/Информация : Advanced Audio CodecПрофиль формата : LCИдентификатор кодека : 40Продолжительность : 23 м. 59 с.Вид битрейта : ПеременныйБитрейт : 207 Кбит/секМаксимальный битрейт : 260 Кбит/секКаналы : 2 каналаРасположение каналов : Front: L RЧастота : 48,0 КГцЧастота кадров : 46,875 кадров/сек (1024 spf)Метод сжатия : С потерямиРазмер потока : 35,6 Мбайт (9%)Язык : JapaneseДата кодирования : UTC 2017-10-07 18:47:34Дата пометки : UTC 2017-10-07 18:56:30
</div>
</div>
01. Lights, Camera, Action!


Трекер:  [ 08-Окт-2017 11:01 ]

  

Скачать .torrent

Размер .torrent файла 1 KB


Размер: 408 MB
Хэш (hash) релиза: 3608a8dfd9a23c6e07af8fe5d7942370be5ef332
Подписка на обновления:

Торренты, похожие на Фронт кровавой блокады скачать торрент

Форум Название Автор Размер S L Добавлен
Аниме | HD Rips ·· Фронт кровавой блокады 2 / Kekkai Sensen & Beyond [TV] [01 из 12] [Без хардсаба] [RUS(int), JAP] [2017, приключения, фэнтези, комедия, сёнэн, WEBRip] [720p] Galfimbul 353657784337 MB 0 0 1507743052

20:30

11-Окт-17

Аниме | HD Rips ·· Фронт кровавой блокады / Kekkai Sensen (Мацумото Риэ) [TV] [12+1 из 12+1] [Без хардсаба] [RUS(ext), JAP+SUB] [2015 г., комедия, приключения, фэнтези, сверхъестественное, BDRip] [1080p] Galfimbul 2281452839121.25 GB 0 0 1448924904

02:08

1-Дек-15

Аниме | Rips ·· Фронт Кровавой Блокады / Kekkai Sensen [TV+Special] [1-12+1 из 12+1] [Без хардсаба] [RUS(int), JAP, SUB] [2015 г., приключения, экшен, фэнтези, HDTVRip] [720p] Galfimbul 72437833146.75 GB 0 0 1448829146

23:32

29-Ноя-15

Аниме | HD Rips ·· Фронт кровавой блокады / Kekkai Sensen (Мацумото Риэ) [TV+Special] [12+1 из 12+1] [без хардсаба] [RUS(ext), JAP+SUB] [2015 г., комедия, фэнтези, BDRip] [720p] Galfimbul 1302514811412.13 GB 0 0 1448583232

03:13

27-Ноя-15

Аниме | Rips ·· Фронт кровавой блокады / Kekkai Sensen (Мацумото Риэ) [TV+Special] [без хардсаба] [12+1 из 12+1] [JAP+SUB] & [10+1 из 12+1] [RUS(ext)] [2015 г., комедия, фэнтези, BDRip] [720p] Galfimbul 1256347191711.7 GB 0 0 1448583218

03:13

27-Ноя-15

Аниме | HD Rips ·· Фронт кровавой блокады / Kekkai Sensen / Blood Blockade Battlefront [TV+Special] [1-9+0 из 12+1] [Без хардсаба] [RUS(int),JAP+SUB] [2015, приключения, фэнтези, сверхъестественное, HDTVRip] [720p] Galfimbul 48504106114.52 GB 0 0 1435007335

00:08

23-Июн-15

Аниме | HD Rips ·· Фронт кровавой блокады / Kekkai Sensen / Blood Blockade Battlefront (Мацумото Риэ) [TV+Special] [11+1 из 12+1] [без хардсаба] [JAP+SUB] [2015 г., приключения, фэнтези, сверхъестественное, HDTVRip] [720p] Galfimbul 59072350645.5 GB 0 0 1434921443

00:17

22-Июн-15

Аниме | HD Rips ·· Фронт кровавой блокады / Kekkai Sensen (Мацумото Риэ) [TV] [01-08 из 12] [без хардсаба] [RUS(int), JAP+SUB] [2015 г., приключения, фантастика, HDTVRip] [720p] Galfimbul 42274094023.94 GB 0 0 1434461454

16:30

16-Июн-15

Аниме | Rips ·· Фронт Кровавой Блокады / Kekkai Sensen [TV] [01-07 из 12] [Без хардсаба] [RUS(int), JAP, SUB] [2015 г., приключения, экшен, фэнтези, HDTVRip] [720p] Galfimbul 36083886043.36 GB 0 0 1432111556

11:45

20-Май-15

Аниме | Rips ·· Фронт кровавой блокады/Blood Blockade Battlefront/Kekkai Sensen [TV] [01-06 из 12] [Без хардсаба] [RUS(int), JAP+SUB] [2015 г., Приключения, Сэйнэн, Фантастика, Фэнтези, HDTVRip] [720p] Galfimbul 31308109142.92 GB 0 0 1431746285

06:18

16-Май-15

Аниме | Rips ·· Фронт кровавой блокады / Kekkai Sensen / Blood Blockade Battlefront [TV][4 из 12][Без хардсаба][RUS(int),JAP+SUB][2015, приключения, фэнтези, сверхъестественное, HDTVRip][720p] Galfimbul 20960546491.95 GB 0 0 1430583879

19:24

2-Май-15

Аниме | HD Rips ·· Фронт кровавой блокады / Kekkai Sensen [TV] [2 из 12] [Без хардсаба] [RUS(ext), JAP+SUB] [2015 г., приключения, фэнтези, HDTVRip] [720p] Galfimbul 999318413953 MB 0 0 1429129022

23:17

15-Апр-15

Аниме | HD Rips ·· Фронт кровавой блокады / Kekkai Sensen / Blood Blockade Battlefront (Мацумото Риэ) [TV] [2 из >12] [без хардсаба] [JAP+SUB] [2015 г., приключения, фэнтези, сверхъестественное, HDTVRip] [720p] Galfimbul 908263299866 MB 0 0 1428871662

23:47

12-Апр-15

Аниме | Rips ·· Фронт Кровавой Блокады / Kekkai Sensen [TV] [01 из 12] [Без хардсаба] [RUS(int), JAP, SUB] [2015 г., приключения, экшен, фэнтэзи, HDTVRip] [720p] Galfimbul 482076050460 MB 0 0 1428685979

20:12

10-Апр-15

Аниме | HD Rips ·· Фронт кровавой блокады / Kekkai Sensen (Мацумото Риэ) [TV] [01 из 12] [без хардсаба] [RUS(int), JAP+SUB] [2015 г., приключения, фантастика, WEBRip] [720p] Galfimbul 481053493459 MB 0 0 1428605427

21:50

9-Апр-15

Аниме | HD Rips ·· Фронт кровавой блокады / Kekkai Sensen / Blood Blockade Battlefront (Мацумото Риэ) [TV] [1 из >12] [без хардсаба] [JAP+SUB] [2014 г., приключения, фэнтези, сверхъестественное, HDTVRip] [720p] Galfimbul 446918584426 MB 0 0 1428525156

23:32

8-Апр-15

Еще никто не оставлял запись к записи скачать торрент Фронт кровавой блокады . Будь первым!

!Обратная связь