Скачать через торрент Симпсоны The Simpsons Фильм бесплатно в хорошем качестве torrent

Скачивайте на UnionPeer.org фильмы через торрент без регистрации. Новинки кино в хорошем качестве через торрент. На UnionPeer.org можно скачать через торрент фильмы 2014 и 2015 годов. Самые новые фильмы.

Скачать торрент Симпсоны The Simpsons бесплатно через .torrent фильм мультфильм сериал

Если у вас наблюдаются проблемы со скриншотами, переходом по ссылками, скачиванием торрентов - проблемы в блокировщике рекламы AdBlock. #хорошегоДня!


Статистика раздачи
Размер:  300 MB   |    Зарегистрирован:  15 дней   |    .torrent скачан:  9 раз   |   
Раздают:  1  
   
Загрузка...
 
Автор Сообщение

Galfimbul

avatar Galfimbul


Симпсоны | The Simpsons
Год выпуска: 2017
Страна: США
Жанр: Комедия, сатира
Продолжительность: ~ 00:23:00Перевод: Профессиональный (многоголосый закадровый) | VO-productionРежиссёр: Мэтт Гроунинг / Matt GroeningВ ролях: Дэн Кастелланета, Джули Кавнер, Нэнси Картрайт, Ярдли Смит, Гарри Ширер, Хэнк Азария, Памела Хейден, Тресс МакНилл, Карл Видерготт, Мэгги Росвэлл и др.Описание: Симпсоны живут в вымышленном городе Спрингфилд, со своим обществом и историей. Гомер - отец семейства, который дает плохие советы и работает инспектором безопасности на атомной электростанции; Мардж - любящая мать и жена, старается сохранить спокойствие в семье; Барт - 10 летний хулиган; Лиза - философский 8-летний ребенок; и Мэгги - младенец, который общается посредством соски. | |Качество: WEB-DLRip
Формат: AVI
Видео: XviD, 720x400 (16:9), 23,976 fps, ~ 1500 kbps
Аудио: MP3, 48 kHz, 2 ch, 128 kbps - Rus
Аудио: MP3, 48 kHz, 2 ch, 128 kbps - Eng
Субтитры: отсутствуют
Реклама: отсутствует
Общее
Полное имя                               : H:\кино\The Simpsons (S29) VO\The.Simpsons.S29E01.WEB-DLRip.Rus.Eng.VO.avi
Формат                                   : AVI
Формат/Информация                        : Audio Video Interleave
Размер файла                             : 300 Мбайт
Продолжительность                        : 21 м. 38 с.
Общий поток                              : 1939 Кбит/сек
Программа кодирования                    : VirtualDubMod 1.5.10.3 | www.virtualdub-fr.org || (build 2550/release)
Библиотека кодирования                   : VirtualDubMod build 2550/release

Видео
Идентификатор                            : 0
Формат                                   : MPEG-4 Visual
Профиль формата                          : Advanced Simple@L5
Параметр BVOP формата                    : 1
Параметр QPel формата                    : Нет
Параметр GMC формата                     : Без точки перехода
Параметр матрицы формата                 : Default (MPEG)
Идентификатор кодека                     : XVID
Идентификатор кодека/Подсказка           : XviD
Продолжительность                        : 21 м. 38 с.
Битрейт                                  : 1670 Кбит/сек
Ширина                                   : 720 пикселей
Высота                                   : 400 пикселей
Соотношение сторон                       : 16:9
Частота кадров                           : 23,976 (24000/1001) кадра/сек
Цветовое пространство                    : YUV
Субдискретизация насыщенности            : 4:2:0
Битовая глубина                          : 8 бит
Тип развёртки                            : Прогрессивная
Метод сжатия                             : С потерями
Бит/(Пиксели*Кадры)                      : 0.242
Размер потока                            : 258 Мбайт (86%)
Библиотека кодирования                   : XviD 73

Аудио #1
Идентификатор                            : 1
Формат                                   : MPEG Audio
Версия формата                           : Version 1
Профиль формата                          : Layer 3
Режим                                    : Joint stereo
Расширение режима                        : MS Stereo
Идентификатор кодека                     : 55
Идентификатор кодека/Подсказка           : MP3
Продолжительность                        : 21 м. 38 с.
Вид битрейта                             : Постоянный
Битрейт                                  : 128 Кбит/сек
Каналы                                   : 2 канала
Частота                                  : 48,0 КГц
Метод сжатия                             : С потерями
Размер потока                            : 19,8 Мбайт (7%)
Выравнивание                             : Соединение по промежуткам
Продолжительность промежутка             : 42  мс. (1,00 видеокадр)
Время предзагрузки промежутка            : 504  мс.

Аудио #2
Идентификатор                            : 2
Формат                                   : MPEG Audio
Версия формата                           : Version 1
Профиль формата                          : Layer 3
Режим                                    : Joint stereo
Расширение режима                        : MS Stereo
Идентификатор кодека                     : 55
Идентификатор кодека/Подсказка           : MP3
Продолжительность                        : 21 м. 38 с.
Вид битрейта                             : Постоянный
Битрейт                                  : 128 Кбит/сек
Каналы                                   : 2 канала
Частота                                  : 48,0 КГц
Метод сжатия                             : С потерями
Размер потока                            : 19,8 Мбайт (7%)
Выравнивание                             : Соединение по промежуткам
Продолжительность промежутка             : 42  мс. (1,00 видеокадр)
Время предзагрузки промежутка            : 504  мс.
01. The Serfsons - Серфсоны.
Когда раздача ведётся путём добавления новых серий, при каждом добавлении создётся новый торрент. Чтобы начать докачку новой серии, пользователям необходимо сделать следующее:
(1) остановить скачивание,
(2) удалить старый торрент у себя из клиента (старые серии удалять не надо),
(3) скачать новый торрент и запустить его у себя в клиенте вместо старого, при этом указать клиенту путь в старую папку, куда и должно происходить скачивание новых серий.
Ваш клиент при этом должен произвести хеширование (проверку) старой папки (если не производит сам - помогите ему сделать это), и будет докачивать только те серии, которых у вас ещё нет. Старые серии при этом не удаляются, а продолжают раздаваться!
Eсли вы уже удалили старые серии, то предотвратить повторную закачку старых серий можно, отжав галочку в соответсвующих местах при запуске нового торрента. По возможности, желательно не удалять старые серии как можно дольше, чтобы релизёр не столько продолжал раздавать старые серии, а смог сконцентрироваться на новых.


Трекер:  [ 07-Окт-2017 20:24 ]

  

Скачать .torrent

Размер .torrent файла 12 KB


Размер: 300 MB
Хэш (hash) релиза: d3e46b635e8f54651c18991893860ce1a886602b
Подписка на обновления:

Еще никто не оставлял запись к записи скачать торрент Симпсоны The Simpsons . Будь первым!

!Обратная связь