Скачать через торрент Всё в ящик Фильм бесплатно в хорошем качестве torrent

Скачивайте на UnionPeer.org фильмы через торрент без регистрации. Новинки кино в хорошем качестве через торрент. На UnionPeer.org можно скачать через торрент фильмы 2014 и 2015 годов. Самые новые фильмы.

Скачать торрент Всё в ящик бесплатно через .torrent фильм мультфильм сериал

Если у вас наблюдаются проблемы со скриншотами, переходом по ссылками, скачиванием торрентов - проблемы в блокировщике рекламы AdBlock. #хорошегоДня!


Статистика раздачи
Размер:  145 MB   |    Зарегистрирован:  10 дней   |    .torrent скачан:  21 раз   |   
Раздают:  1  
   
Загрузка...
 
Автор Сообщение

Galfimbul

avatar Galfimbul


Всё в ящик
Год выпуска: 2016
Жанр: короткометражка, драма, комедия
Продолжительность: 00:09:33Режиссёр: Игорь Каграманов

В главных ролях: Павел Деревянко, Алевтина Даниленко, Виктор Барченко, Кирилл Улин, Елена Мелентьева, Дмитрий Чистяков, Иван Авсеенко, Татьяна Казьмина, Алексей Редько, Кристина ЛеточнаяОписание: Жизнь художника словно телесериал, в котором он сам исполняет главную роль. И в самый драматичный момент, когда отношения с возлюбленной накаляются до предела в их жизнь врывается режиссер. Качество: WEBRip-AVC
Формат: MKV
Видео кодек: AVC
Аудио кодек: AAС
Видео: 1280x720, 24 fps, ~1 956 kbps avg, 0.088 bit/pixel
Аудио: 48 kHz, AAC, 2ch, ~160 kbps
General
Unique ID : 199668433001372246815916602552990760621 (0x9636BDCCD30A42DE9755F5895456FEAD)
Complete name : D:\Всё в ящик.2016.WEBRip-AVC.mkv
Format : Matroska
Format version : Version 4 / Version 2
File size : 145 MiB
Duration : 9 min
Overall bit rate : 2 118 kb/s
Encoded date : UTC 2017-10-06 07:42:16
Writing application : mkvmerge v13.0.0 ('The Juggler') 64bit
Writing library : libebml v1.3.4 + libmatroska v1.4.5

Video
ID : 1
Format : AVC
Format/Info : Advanced Video Codec
Format profile : High@L3.1
Format settings, CABAC : Yes
Format settings, ReFrames : 5 frames
Codec ID : V_MPEG4/ISO/AVC
Duration : 9 min
Bit rate : 1 956 kb/s
Width : 1 280 pixels
Height : 720 pixels
Display aspect ratio : 16:9
Frame rate mode : Constant
Frame rate : 24.000 FPS
Color space : YUV
Chroma subsampling : 4:2:0
Bit depth : 8 bits
Scan type : Progressive
Bits/(Pixel*Frame) : 0.088
Stream size : 134 MiB (92%)
Writing library : x264 core 148 r11 7599210
Encoding settings : cabac=1 / ref=5 / deblock=1:0:0 / analyse=0x3:0x113 / me=umh / subme=8 / psy=1 / psy_rd=1.00:0.00 / mixed_ref=1 / me_range=16 / chroma_me=1 / trellis=1 / 8x8dct=1 / cqm=0 / deadzone=21,11 / fast_pskip=1 / chroma_qp_offset=-2 / threads=22 / lookahead_threads=3 / sliced_threads=0 / nr=0 / decimate=1 / interlaced=0 / bluray_compat=0 / stitchable=1 / constrained_intra=0 / bframes=3 / b_pyramid=2 / b_adapt=2 / b_bias=0 / direct=3 / weightb=1 / open_gop=0 / weightp=2 / keyint=infinite / keyint_min=24 / scenecut=40 / intra_refresh=0 / rc_lookahead=50 / rc=crf / mbtree=1 / crf=20.0 / qcomp=0.60 / qpmin=5 / qpmax=69 / qpstep=4 / vbv_maxrate=2750 / vbv_bufsize=7500 / crf_max=0.0 / nal_hrd=none / filler=0 / ip_ratio=1.40 / aq=1:1.00
Default : Yes
Forced : No
Color range : Limited
Color primaries : BT.709
Transfer characteristics : BT.709
Matrix coefficients : BT.709

Audio
ID : 2
Format : AAC
Format/Info : Advanced Audio Codec
Format profile : LC
Codec ID : A_AAC
Duration : 9 min
Bit rate : 160 kb/s
Channel(s) : 2 channels
Channel positions : Front: L R
Sampling rate : 48.0 kHz
Frame rate : 46.875 FPS (1024 spf)
Compression mode : Lossy
Stream size : 10.9 MiB (8%)
Default : Yes
Forced : No


Трекер:  [ 06-Окт-2017 10:54 ]

  

Скачать .torrent

Размер .torrent файла 11 KB


Размер: 145 MB
Хэш (hash) релиза: 3c2d15db670b64ede6df64802a1f0ad1fc1a7296
Подписка на обновления:

Еще никто не оставлял запись к записи скачать торрент Всё в ящик . Будь первым!

!Обратная связь