Скачать через торрент Богатство Фильм бесплатно в хорошем качестве torrent

Скачивайте на UnionPeer.org фильмы через торрент без регистрации. Новинки кино в хорошем качестве через торрент. На UnionPeer.org можно скачать через торрент фильмы 2014 и 2015 годов. Самые новые фильмы.

Скачать торрент Богатство бесплатно через .torrent фильм мультфильм сериал

Если у вас наблюдаются проблемы со скриншотами, переходом по ссылками, скачиванием торрентов - проблемы в блокировщике рекламы AdBlock. #хорошегоДня!


Статистика раздачи
Размер:  15.17 GB   |    Зарегистрирован:  11 дней   |    .torrent скачан:  11 раз   |   
Раздают:  1  
   
Загрузка...
 
Автор Сообщение

Galfimbul

avatar Galfimbul


Богатство

Страна: Россия
Жанр: приключения, военный
Год выпуска: 2004
Продолжительность: 09:21:29

Перевод: Не требуется
Субтитры: нет
Оригинальная аудиодорожка: русская

Режиссер: Эльдор Уразбаев

В ролях: Сергей Никоненко, Сергей Баталов, Олег Табаков, Андрей Мартынов, Геннадий Юхтин, Александр Самойлов, Анатолий Кузнецов, Петр Зайченко, Валентин Голубенко, Сергей Баринов

Описание: Перед зрителем предстанет подлинная военная обстановка на Дальнем Востоке и в частности на Камчатке, сила и стойкость русского народа в те тяжелые годы войны, когда наша неподготовленная малочисленная армия Дальнего Востока, не имея всего необходимого, героически пыталась выстоять в борьбе с японскими захватчиками.

Меню: есть, статичное

Тип релиза: DVD5
Контейнер: DVD-Video

Видео: PAL 4:3 (720x576(0.340)) MPEG Video, 25,000 кадр/сек, 3523 Кбит/сек
Аудио: Russian (Dolby AC-3, 2 ch) 192 Кбит/сек, 48.0 КГц
4xDVD5
Общее
Полное имя : БОГАТСТВО_По Роману В.ПИКУЛЯ\ДВД 1\VIDEO_TS\VTS_02_1.VOB
Формат : MPEG-PS
Размер файла : 1024 Мбайт
Продолжительность : 37 м. 46 с.
Режим общего битрейта : Переменный
Общий поток : 3790 Кбит/сек

Видео
Идентификатор : 224 (0xE0)
Формат : MPEG Video
Версия формата : Version 2
Профиль формата : Main@Main
Параметр BVOP формата : Да
Параметр матрицы формата : Выборочная
Параметр GOP формата : M=3, N=12
Структура изображения : Frame
Продолжительность : 37 м. 46 с.
Вид битрейта : Переменный
Битрейт : 3523 Кбит/сек
Максимальный битрейт : 8500 Кбит/сек
Ширина : 720 пикселей
Высота : 576 пикселей
Соотношение сторон : 4:3
Частота кадров : 25,000 кадров/сек
Стандарт вещания : PAL
Цветовое пространство : YUV
Субдискретизация насыщенности : 4:2:0
Битовая глубина : 8 бит
Тип развёртки : Чересстрочная
Порядок развёртки : Верхнее поле первое
Метод сжатия : С потерями
Бит/(Пиксели*Кадры) : 0.340
Временной код первого кадра : 00:00:00:00
Оригинал временного кода : Group of pictures header
GOP, открыто/закрыто : Открыто
GOP, открыто/закрыто на первом кадре : Закрыто
Размер потока : 952 Мбайт (93%)

Аудио
Идентификатор : 189 (0xBD)-128 (0x80)
Формат : AC-3
Формат/Информация : Audio Coding 3
Параметр Endianness формата : Big
Режим смешивания : DVD-Video
Продолжительность : 37 м. 45 с.
Вид битрейта : Постоянный
Битрейт : 192 Кбит/сек
Каналы : 2 канала
Расположение каналов : Front: L R
Частота : 48,0 КГц
Частота кадров : 31,250 кадров/сек (1536 spf)
Битовая глубина : 16 бит
Метод сжатия : С потерями
Размер потока : 51,9 Мбайт (5%)
ServiceKind/String : Complete Main


Трекер:  [ 05-Окт-2017 22:06 ]

  

Скачать .torrent

Размер .torrent файла 44 KB


Размер: 15.17 GB
Хэш (hash) релиза: c8fd32a97a127019e6fea6f823803690505bed75
Подписка на обновления:

Торренты, похожие на Богатство скачать торрент

Форум Название Автор Размер S L Добавлен
Зарубежные фильмы до 2016 ·· И в бедности, и в богатстве / И в бедности и в богатстве / For Richer or Poorer (Брайан Спайсер / Bryan Spicer) [1997, США, Комедия, DVDRip] MVO + Original (eng) + Sub (eng) Galfimbul 22414949832.09 GB 0 0 1365319124

10:18

7-Апр-13

Документальные фильмы и телепередачи ·· Делай ставки и взрывай / Bid & De$stroy / Богатство из пепла [2012, Документальный, SATRip] Galfimbul 299024384285 MB 0 0 1362393400

13:36

4-Мар-13

Мультфильмы до 2016 ·· Про всех на свете (Тяп-ляп; Была у слона мечта; Приключения малыша Гиппопо; Человек с детским акцентом; Миколино богатство; Музыкальные сказки; Теплый хлеб) [1973-1987, мультфильмы рисованные, DVD5] Galfimbul 25520025602.38 GB 0 0 1361723843

19:37

24-Фев-13

Зарубежные фильмы до 2016 ·· Богатые любовью / Богатство в любви / Rich in Love (Брюс Бересфорд / Bruce Beresford) [1992, США, мелодрама, экранизация, HDTVRip] DVO (НТВ+) Galfimbul 79958425607.45 GB 0 0 1355312640

14:44

12-Дек-12

Зарубежные фильмы до 2016 ·· И в бедности и в богатстве / For Richer or Poorer (Брайан Спайсер / Bryan Spicer) [1997, США, комедия, DVD5 (Сжатый)] MVO Original Eng Galfimbul 46700892164.35 GB 0 0 1347984960

19:16

18-Сен-12

Мультфильмы до 2016 ·· Жили-были мысли.Сборник мультфильмов (Где ты, мой конь?,Жили - были мысли,Золотой гвоздь,Как было написано первое письмо,Мальчик с уздечкой,Маруся - богуславка,Мыколино богатство,Сказка о карасях, зайцах и бубликах) [1966-1988, мультфильм, DVD5] Galfimbul 35788062723.33 GB 0 0 1347113520

17:12

8-Сен-12

Мультфильмы до 2016 ·· Мудрость и богатство (Абдукамиль Джунусов) [1977, Рисованный мультфильм, WEBRip] Galfimbul 139261952133 MB 0 0 1320348601

22:30

3-Ноя-11

Российские сериалы ·· Богатство / Сезон: 1 Серии: 12 из 12 (Эльдор Уразбаев) [2004, Исторический, военный, DVDRip] Sabin 88101027848.21 GB 0 0 1304214656

04:50

1-Май-11

Еще никто не оставлял запись к записи скачать торрент Богатство . Будь первым!

!Обратная связь