Скачать через торрент Новые приключения Винни Пуха The New Adventures of Winnie the Pooh Фильм бесплатно в хорошем качестве torrent

Скачивайте на UnionPeer.org фильмы через торрент без регистрации. Новинки кино в хорошем качестве через торрент. На UnionPeer.org можно скачать через торрент фильмы 2014 и 2015 годов. Самые новые фильмы.

Скачать торрент Новые приключения Винни Пуха The New Adventures of Winnie the Pooh бесплатно через .torrent фильм мультфильм сериал

Если у вас наблюдаются проблемы со скриншотами, переходом по ссылками, скачиванием торрентов - проблемы в блокировщике рекламы AdBlock. #хорошегоДня!


Статистика раздачи
Размер:  7.23 GB   |    Зарегистрирован:  17 дней   |    .torrent скачан:  9 раз   |   
Раздают:  1   Качают:  1  
   
Загрузка...
 
Автор Сообщение

Galfimbul

avatar Galfimbul


Новые приключения Винни Пуха
The New Adventures of Winnie the PoohСезон 2Серии: 1-10 из 10
Страна: США
Производство: Disney
Жанр: Мультфильм, фэнтези, комедия, приключения
Продолжительность: 00:22:00
Года выпуска: 1989
Перевод:

Профессиональный (полное дублирование) | студии «Нота», «Кадр» ТПО «Рост» 1992-1993
Профессиональный (полное дублирование) | студия «Невафильм» 2010
Оригинальная звуковая дорожка (English)

Русские субтитры: нет
Английские субтитры: частично естьРежиссёр: Теренс Харрисон / Terence HarrisonКто такой Винни Пух, знают все. Этот мультфильм производства компании Уолта Диснея основан на оригинальных иллюстрациях четырехтомного собрания о Винни Пухе Эрнеста Шепарда. Познакомьтесь с Винни Пухом, каким его видят англоязычные ценители и который, конечно, отличается от русской версии Бориса Заходера. Все раздачи мультсериалаКачество: WEBRip 1080p HDCLUB
Формат: MKV
Видео: 1920x1080 (16:9) at 25.000 fps, High@L4, 2pass, ~4000 kbps avg, ~0.070bpp
Аудио:

Russian: 48 kHz, AC3 Dolby Digital, 2 ch, ~256 kbps | «Нота», «Кадр» ТПО «Рост»
Russian: 44.1 kHz, AAC LC, 2 ch, ~192 kbps | «Невафильм»
English: 44.1 kHz, AAC LC, 2 ch, ~192 kbps

Субтитры: English (*.srt)
GeneralUnique ID : 198536133399314694158856667987595408686 (0x955CAB1E9972BECDBB03D0B21A8AB52E)Complete name : \The New Adventures of Winnie the Pooh - Season 2\The.New.Adventures.of.Winnie.the.Pooh.S02E09.1080p.WEBRip.x264.AAC2.0.2xDub.Eng.mkvFormat : MatroskaFormat version : Version 4 / Version 2File size : 741 MiBDuration : 22 min 19 sOverall bit rate : 4 641 kb/sMovie name : Prize Piglet / Fast FriendsEncoded date : UTC 2017-10-04 12:05:29Writing application : mkvmerge v16.0.0 ('Protest') 64-bitWriting library : libebml v1.3.5 + libmatroska v1.4.8Attachments : poster.jpg

VideoID : 1Format : AVCFormat/Info : Advanced Video CodecFormat profile : High@L4Format settings, CABAC : YesFormat settings, ReFrames : 3 framesCodec ID : V_MPEG4/ISO/AVCDuration : 22 min 19 sBit rate : 4 000 kb/sWidth : 1 920 pixelsHeight : 1 080 pixelsDisplay aspect ratio : 16:9Frame rate mode : ConstantFrame rate : 25.000 FPSColor space : YUVChroma subsampling : 4:2:0Bit depth : 8 bitsScan type : ProgressiveBits/(Pixel*Frame) : 0.077Stream size : 637 MiB (86%)Title : The New Adventures of Winnie the Pooh: Season 2Writing library : x264 core 142 r2389 956c8d8Encoding settings : cabac=1 / ref=3 / deblock=1:0:0 / analyse=0x3:0x133 / me=umh / subme=7 / psy=1 / psy_rd=1.00:0.00 / mixed_ref=1 / me_range=32 / chroma_me=1 / trellis=2 / 8x8dct=1 / cqm=0 / deadzone=21,11 / fast_pskip=1 / chroma_qp_offset=-2 / threads=12 / lookahead_threads=2 / sliced_threads=0 / nr=0 / decimate=1 / interlaced=0 / bluray_compat=0 / constrained_intra=0 / bframes=0 / weightp=0 / keyint=75 / keyint_min=26 / scenecut=40 / intra_refresh=0 / rc_lookahead=50 / rc=2pass / mbtree=0 / bitrate=4000 / ratetol=1.0 / qcomp=0.20 / qpmin=10 / qpmax=51 / qpstep=4 / cplxblur=20.0 / qblur=0.5 / vbv_maxrate=5000 / vbv_bufsize=5000 / nal_hrd=none / filler=0 / ip_ratio=1.40 / aq=1:1.00Language : RussianDefault : YesForced : NoColor range : LimitedColor primaries : BT.709Transfer characteristics : BT.709Matrix coefficients : BT.709

Audio #1ID : 2Format : AC-3Format/Info : Audio Coding 3Mode extension : CM (complete main)Format settings, Endianness : BigCodec ID : A_AC3Duration : 22 min 18 sBit rate mode : ConstantBit rate : 256 kb/sChannel(s) : 2 channelsChannel positions : Front: L RSampling rate : 48.0 kHzFrame rate : 31.250 FPS (1536 spf)Bit depth : 16 bitsCompression mode : LossyStream size : 40.9 MiB (6%)Title : Dub «Нота», «Кадр» и ТПО «Рост», 1992Language : RussianDefault : YesForced : No

Audio #2ID : 3Format : AACFormat/Info : Advanced Audio CodecFormat profile : LCCodec ID : A_AACDuration : 22 min 18 sBit rate : 192 kb/sChannel(s) : 2 channelsChannel positions : Front: L RSampling rate : 44.1 kHzFrame rate : 43.066 FPS (1024 spf)Compression mode : LossyStream size : 30.6 MiB (4%)Title : Dub «Невафильм» 2010Language : RussianDefault : NoForced : No

Audio #3ID : 4Format : AACFormat/Info : Advanced Audio CodecFormat profile : LCCodec ID : A_AACDuration : 22 min 18 sBit rate : 192 kb/sChannel(s) : 2 channelsChannel positions : Front: L RSampling rate : 44.1 kHzFrame rate : 43.066 FPS (1024 spf)Compression mode : LossyStream size : 30.6 MiB (4%)Title : OriginalLanguage : EnglishDefault : NoForced : No

Menu00:00:00.000 : en:Intro00:01:01.120 : en:Prize Piglet00:11:10.440 : en:Fast Friends
(Полноразмерные скриншоты открываются кликом по миниатюре)
№ Оригинальное название студия «Нота», «Кадр» и ТПО «Рост» студия «Невафильм»

01. Me and My Shadow / To Catch a Hiccup Я и моя тень / Икота напала Я и моя тень / Как поймать икоту02. Rabbit Marks the Spot / Good-Bye Mr. Pooh Кролик и кладоискатели / До свидания, милый Пух! Где Кролик, там и клад / Прощай, медвежонок, прощай!03. Bubble Trouble / Groundpiglet Day Вот так пузыри / День земляной свинки Упрямый пузырь / День поросячьего сурка!04. All's Well That Ends Wishing Well День рождения Тигры Всё хорошо, что хорошо желается05. Un-Valentine's Day Антивалентинов день День Святого Валентина отменяется06. No Rabbit's a Fortress / The Monster Frankenpooh Мой огород — моя крепость / Чудовище Франкенпух Один Кролик в поле не воин / Громила Франкен-Винни07. Where, Oh Where Has My Piglet Gone? / Up, Up and Awry Где же ты, мой Пятачок? / Всё выше и выше Хрюник, ты где? / Вверх, вверх, полетели!08. Eeyore's Tail Tale / Three Little Piglets Сказка про ослиный хвост / Три Пятачонка А хвост непрост / Три поросёнка09. Prize Piglet / Fast Friends Пятачок-чемпион / Быстрые друзья Призовой поросёнок / Настоящие друзья10. Pooh Moon / Caws and Effect Пух и луна / Кар-кар-кар Лунный мёд / Вороны-воровки

синим цветом выделены названия эпизодов с недостающими английскими субтитрами
<div class="post-box" style="border-color: red; background: #DBEAC2;">

В основу взят релиз ex-HDClub (ныне EliteHD)
Видеоряд, дубляж Невафильма и оригинальная зв.дорога остались без изменений
Нумерацию серий взята оригинальная, соответствующая порядку, указанному на imdb
Звуковые дорожки раннего дубляжа и все имеющиеся в наличии субтитры для сведения с web-dl брались из раздачи RoxMarty
Звук сводился по оригинальной дороге. Музыкальное фоновое сопровождение соответствует оригинальному таймингу.
</div>


Трекер:  [ 05-Окт-2017 21:24 ]

  

Скачать .torrent

Размер .torrent файла 19 KB


Размер: 7.23 GB
Хэш (hash) релиза: 352eb594da41dcd760a7bf1d64c872d23cfce81f
Подписка на обновления:

Еще никто не оставлял запись к записи скачать торрент Новые приключения Винни Пуха The New Adventures of Winnie the Pooh . Будь первым!

!Обратная связь