Скачать через торрент Враг народа Бухарин Фильм бесплатно в хорошем качестве torrent

Скачивайте на UnionPeer.org фильмы через торрент без регистрации. Новинки кино в хорошем качестве через торрент. На UnionPeer.org можно скачать через торрент фильмы 2014 и 2015 годов. Самые новые фильмы.

Скачать торрент Враг народа Бухарин бесплатно через .torrent фильм мультфильм сериал

Если у вас наблюдаются проблемы со скриншотами, переходом по ссылками, скачиванием торрентов - проблемы в блокировщике рекламы AdBlock. #хорошегоДня!


Статистика раздачи
Размер:  1.37 GB   |    Зарегистрирован:  11 дней   |    .torrent скачан:  25 раз   |   
Раздают:  1   Качают:  1  
   
Загрузка...
 
Автор Сообщение

Galfimbul

avatar Galfimbul


Враг народа Бухарин

Жанр: драма, биография
Год выпуска: 1991
Продолжительность: 01:36:18

Режиссёр: Леонид Марягин

В ролях: Александр Романцов, Сергей Шакуров, Евгений Лазарев, Геннадий Сайфулин, Лев Лемке, Николай Ферапонтов, Георгий Склянский, Марина Либакова-Ливанова, Е. Токарева, Иван Косых, Юрий Михайлов, Леонид Евтифьев, А. Литвинов, Геннадий Чулков, Ян Янакиев, Константин Борисов, Юрий Сосновский, Михаил Езепов, Леонид Тимцуник, Анатолий Грачёв

Описание: Историко-биографический фильм о Николае Бухарине (1888-1938).
Авторы исторической драмы приоткрывают малоизвестную страницу истории -«ложный» процесс над Николаем Бухариным, который стал репетицией главного действа, не замедлившего себя долго ждать. По архивным документам, именно на этом «малом» процессе Бухарин решил полностью изменить его ход и вместо навязанного ему сценария начал говорить правду. Впрочем, попытка эта была обречена. Одновременно с кадрами процесса перед нами проходит жизнь Николая Бухарина — жизнь, обернувшаяся трагедией.

Доп. информация: Оцифровка VHS (личный архив) и получение VHSRip alenavova

Эксклюзив для rutracker.org. При размещении данного релиза на других сайтах ссылка на автора alenavova обязательна.

Релиз

Сэмпл: https://yadi.sk/i/dayROMfd3NW9hX

Качество видео: VHSRip
Формат видео: AVI

Видео: 704x512 (1.38:1), 25 fps, XviD build 73 ~1831 kbps avg, 0.20 bit/pixel
Аудио: 48 kHz, AC3 Dolby Digital, 2/0 (L,R) ch, ~192 kbps
Враг народа Бухарин [by alenavova].avi
Format : AVI
Format/Info : Audio Video Interleave
File size : 1.37 GiB
Duration : 1 h 36 min
Overall bit rate : 2 034 kb/s
Movie name : Враг народа Бухарин [by alenavova]
Director : by alenavova
Writing application : VirtualDubMod 1.5.10.3 | www.virtualdub-fr.org || (build 2550/release)
Copyright : Edich2
Comment : RuTracker.org

Video
ID : 0
Format : MPEG-4 Visual
Format profile : Advanced Simple@L5
Format settings, BVOP : 2
Format settings, QPel : No
Format settings, GMC : No warppoints
Format settings, Matrix : Custom
Codec ID : XVID
Codec ID/Hint : XviD
Duration : 1 h 36 min
Bit rate : 1 832 kb/s
Width : 704 pixels
Height : 512 pixels
Display aspect ratio : 1.375
Frame rate : 25.000 FPS
Color space : YUV
Chroma subsampling : 4:2:0
Bit depth : 8 bits
Scan type : Progressive
Compression mode : Lossy
Bits/(Pixel*Frame) : 0.203
Stream size : 1.23 GiB (90%)
Writing library : XviD 73

Audio
ID : 1
Format : AC-3
Format/Info : Audio Coding 3
Format settings, Endianness : Big
Codec ID : 2000
Duration : 1 h 36 min
Bit rate mode : Constant
Bit rate : 192 kb/s
Channel(s) : 2 channels
Channel positions : Front: L R
Sampling rate : 48.0 kHz
Frame rate : 31.250 FPS (1536 spf)
Bit depth : 16 bits
Compression mode : Lossy
Stream size : 132 MiB (9%)
Alignment : Split accross interleaves
Interleave, duration : 40 ms (1.00 video frame)
Interleave, preload duratio : 500 ms
Service kind : Complete Main


Трекер:  [ 05-Окт-2017 20:24 ]

  

Скачать .torrent

Размер .torrent файла 14 KB


Размер: 1.37 GB
Хэш (hash) релиза: fc3a410020c080133c964bb238bc81bccb99af53
Подписка на обновления:

Торренты, похожие на Враг народа Бухарин скачать торрент

Форум Название Автор Размер S L Добавлен
Российские фильмы до 2016 ·· Враг народа Бухарин (Леонид Марягин) [1990, драма, биография, SATRip] Galfimbul 747346802713 MB 0 0 1496498942

17:09

3-Июн-17

Еще никто не оставлял запись к записи скачать торрент Враг народа Бухарин . Будь первым!

!Обратная связь