Скачать через торрент Байки Из Турне Mike Judge Presents: Tales From the Tour Bus Фильм бесплатно в хорошем качестве torrent

Скачивайте на UnionPeer.org фильмы через торрент без регистрации. Новинки кино в хорошем качестве через торрент. На UnionPeer.org можно скачать через торрент фильмы 2014 и 2015 годов. Самые новые фильмы.

Скачать торрент Байки Из Турне Mike Judge Presents: Tales From the Tour Bus бесплатно через .torrent фильм мультфильм сериал

Если у вас наблюдаются проблемы со скриншотами, переходом по ссылками, скачиванием торрентов - проблемы в блокировщике рекламы AdBlock. #хорошегоДня!


Статистика раздачи
Размер:  2.07 GB   |    Зарегистрирован:  18 дней   |    .torrent скачан:  12 раз   |   
Раздают:  1  
   
Загрузка...
 
Автор Сообщение

Galfimbul

avatar Galfimbul


Байки Из Турне / Mike Judge Presents: Tales From the Tour Bus
Страна: США
Жанр: Комедия, Биография, Кантри
Продолжительность: ~28 мин.
Год выпуска: 2017
Перевод: Профессиональный (двухголосый закадровый) |Greb and Creative Group Company|

Режиссёр: Майк Джадж / Mike Judge
Роли озвучивали: Сергей Чихачев, Марианна ШульцОписание: Создатель «Бивиса и Баттхеда» и «Царя горы», а также продюсер «Силиконовой долины» Майк Джадж возвращается к анимации. Его новое комедийное шоу посвящено гастрольным приключениям самых чудаковатых персонажей кантри-музыки. Вне всяких сомнений, тема для стёба и убойных баек неисчерпаема.Список серий:
01 Johnny Paycheck / Джонни Пейчек
02 Jerry Lee Lewis / Джерри Ли ЛьюисРелиз группы: Доп. информация:
Огромная Благодарность #Antisnl# за предоставление качественных записей телеканала |Amedia Premium HD|Качество: WEB-DL 1080p (AMZN)
Формат: MKV
Видео: MPEG-4 AVC, 1920x1080, 23.976 fps, ~4500 kbps
Аудио 1: Русский, AC3 Dolby Digital, 6 ch, 384 kbps, 48 kHz
Аудио 2: Английский, E-AC3 Dolby Digital, 6 ch, 640 kbps, 48 kHz
Субтитры: Английские | SubRip

Сэмпл
Общее
Уникальный идентификатор : 214816921371338281222660071684721286244 (0xA19C3BF0CBEB2E67B2D0BAB2C6731C64)
Полное имя : D:\Stuff\Mike.Judge.Presents.Tales.From.the.Tour.Bus.S01.2017.H264.WEB-DL.1080p-SergeZuich\01 Johnny Paycheck.mkv
Формат : Matroska
Версия формата : Version 4 / Version 2
Размер файла : 1,07 Гбайт
Продолжительность : 28 м.
Режим общего битрейта : Переменный
Общий поток : 5299 Кбит/сек
Дата кодирования : UTC 2017-09-26 16:24:23
Программа кодирования : mkvmerge v8.3.0 ('Over the Horizon') 64bit
Библиотека кодирования : libebml v1.3.1 + libmatroska v1.4.2

Видео
Идентификатор : 1
Формат : AVC
Формат/Информация : Advanced Video Codec
Профиль формата : High@L4
Параметр CABAC формата : Да
Параметр ReFrames формата : 4 кадра
Идентификатор кодека : V_MPEG4/ISO/AVC
Продолжительность : 28 м.
Вид битрейта : Переменный
Битрейт : 4169 Кбит/сек
Максимальный битрейт : 15,0 Мбит/сек
Ширина : 1920 пикселей
Высота : 1080 пикселей
Соотношение сторон : 16:9
Режим частоты кадров : Постоянный
Частота кадров : 23,976 кадра/сек
Цветовое пространство : YUV
Субдискретизация насыщенности : 4:2:0
Битовая глубина : 8 бит
Тип развёртки : Прогрессивная
Бит/(Пиксели*Кадры) : 0.084
Размер потока : 864 Мбайт (79%)
Заголовок : Johnny Paycheck
Default : Да
Forced : Нет
Цветовой диапазон : Limited
Основные цвета : BT.709
Характеристики трансфера : BT.709
Коэффициенты матрицы : BT.709

Аудио #1
Идентификатор : 2
Формат : AC-3
Формат/Информация : Audio Coding 3
Расширение режима : CM (complete main)
Параметр Endianness формата : Big
Идентификатор кодека : A_AC3
Продолжительность : 28 м.
Вид битрейта : Постоянный
Битрейт : 384 Кбит/сек
Каналы : 6 каналов
Расположение каналов : Front: L C R, Side: L R, LFE
Частота : 48,0 КГц
Метод сжатия : С потерями
Размер потока : 79,6 Мбайт (7%)
Заголовок : DVO [Greb and Creative Group Company] - AC3 Dolby Digital, 6ch, 384 kbps, 48 kHz
Язык : Russian
Default : Да
Forced : Нет

Аудио #2
Идентификатор : 3
Формат : E-AC-3
Формат/Информация : Audio Coding 3
Параметр Endianness формата : Big
Идентификатор кодека : A_EAC3
Продолжительность : 28 м.
Вид битрейта : Постоянный
Битрейт : 640 Кбит/сек
Каналы : 6 каналов
Расположение каналов : Front: L C R, Side: L R, LFE
Частота : 48,0 КГц
Метод сжатия : С потерями
Размер потока : 133 Мбайт (12%)
Заголовок : Original - E-AC3 Dolby Digital, 6ch, 640 kbps, 48 kHz
Язык : English
Default : Нет
Forced : Нет

Текст
Идентификатор : 4
Формат : UTF-8
Идентификатор кодека : S_TEXT/UTF8
Идентификатор кодека/Информация : UTF-8 Plain Text
Заголовок : .Johnny Paycheck
Язык : English
Default : Нет
Forced : Нет


Трекер:  [ 04-Окт-2017 09:24 ]

  

Скачать .torrent

Размер .torrent файла 11 KB


Размер: 2.07 GB
Хэш (hash) релиза: 2de612ba9c09a4451321e6f8809f174536ad6cd2
Подписка на обновления:

Еще никто не оставлял запись к записи скачать торрент Байки Из Турне Mike Judge Presents: Tales From the Tour Bus . Будь первым!

!Обратная связь