Скачать через торрент Гриффины Family Guy Фильм бесплатно в хорошем качестве torrent

Скачивайте на UnionPeer.org фильмы через торрент без регистрации. Новинки кино в хорошем качестве через торрент. На UnionPeer.org можно скачать через торрент фильмы 2014 и 2015 годов. Самые новые фильмы.

Скачать торрент Гриффины Family Guy бесплатно через .torrent фильм мультфильм сериал

Если у вас наблюдаются проблемы со скриншотами, переходом по ссылками, скачиванием торрентов - проблемы в блокировщике рекламы AdBlock. #хорошегоДня!


Статистика раздачи
Размер:  19.91 GB   |    Зарегистрирован:  19 дней   |    .torrent скачан:  9 раз   |   
Раздают:  1  
   
Загрузка...
 
Автор Сообщение

Galfimbul

avatar Galfimbul


Гриффины / Family Guy
Год выпуска: 2011
Страна: США
Жанр: Мультфильм, комедия
Продолжительность: ~ 00:20:00
Перевод: Многоголосый, закадровый FiLiZa StudioРежиссёр: Сет Макфарлейн
Роли озвучивали: Сет МакФарлейн, Алекс Борштейн, Сет Грин, Мила Кунис, Майк Генри и другие.Описание: "Гриффины" (Family Guy) - анимационное ТВ-Шоу, созданное Сетом МакФерлайном (Seth MacFarlane) для телеканала FOX. Как нетрудно догадаться, главными героями шоу является семейка Гриффинов: тупой, но полный сумашедших идей, составляющих львиную долю шуток сериала, отец семейства Питер; его любящя и терпеливая жена Лойс, всеми силами пытающаяся превратить Гриффинов в нормальную семью; их интеллектуально развитый не по годам, вынашивающий идею мирового господства младший сын Стьюи; дочь-ботаник, обречённая из-за этого на одиночество и непонимание как в школе так и дома, Мэг; и 13-ти летний отсталый в развитии лет на 10, сын Крис. Также полноценным членом семьи является пёс Брайн - склонный к меланхолии эстет, спокойно наблюдающий с бокалом вина в лапе над приключениями Питера и остальных членов семьи (и это при всём притом, что остальные собаки в сериале не являются очеловеченными).Релизер: АКТЕР aka CEBEPu2D
За звук спасибо! SerGoLeOne
Роли озвучивали:
Little - Стьюи, Куагмайер, Брайан, Крис, Морт, Джо, доктор Хартман, пират, Том Такер и другие.
darkFIL - Питер, Джеймс Вудс, Карл, Дерек, Хорас, директор Шеппард и другие.
Света - Лоис, Мэг, Бонни и другие женские роли.
Пётр Гланц, Олег Варганов, Rise, SerGoLeOne и другие - второстепенные роли.Все раздачи сериала Качество: WEB-DL 1080p
Формат: MKV
Видео: H.264, 1920x1080, 23.976 fps, ~5000 kbps, ~0.094 bit/pixel
Аудио 1 Rus: AC3, 48 kHz, 6 ch, 384 kbps |FiLiZa Studio|
Аудио 2 Eng: AC3, 48 kHz, 6 ch, 384 kbps |Original|
Субтитры: английские
01. Лотерейная лихорадка / Lottery Fever
02. В компании с морской ракушкой и морским коньком / Seahorse Seashell Party
03. Крики тишины: История Бренды Куагмир / Screams of Silence: The Story of Brenda
04. Стьюи Хочет Покататься / Stewie Goes for a Drive
05. Возвращение в пилотную серию / Back to the Pilot
06. День Благодарения / Thanksgiving
07. Амишский парень / Amish Guy
08. Хладнокровный Питер / Cool Hand Peter
09. Сварливый Старик / Grumpy Old Man
10. Куагмир и Мег / Quagmire and Meg
11. Слепая сторона / The Blind Side
12. Жизнь по молитве / Livin' on a Prayer
13. Том Такер: Человек с Мечтой / Tom Tucker: The Man and His Dream
14. Осторожно - рыба / Be Careful What You Fish For
15. Поджарим Еврея / Burning Down the Bayit
16. Queen-убийца / Killer Queen
17. Незабудка / Forget-Me-Not
18. Так не Ведут Себя на Экране, Питер / You Can't Do That On Television, Peter
19. Мистер и миссис Стьюи / Mr. and Mrs. Stewie
20. Отпусти мою Мег / Leggo My Meg-O
21. Чай Питера / Tea Peter
22. По заявкам зрителей, выпуск 2 / Family Guy Viewer Mail 2
23. Внутренние дела / Internal Affairs
Формат : Matroska
Версия формата : Version 4 / Version 2
Размер файла : 856 Мбайт
Продолжительность : 21 м.
Общий поток : 5538 Кбит/сек
Дата кодирования : UTC 2017-03-07 12:00:49
Программа кодирования : mkvmerge v6.2.0 ('Promised Land') built on Apr 28 2013 12:22:01
Библиотека кодирования : libebml v1.3.0 + libmatroska v1.4.0

Видео
Идентификатор : 1
Формат : AVC
Формат/Информация : Advanced Video Codec
Профиль формата : High@L4.0
Параметр CABAC формата : Да
Параметр ReFrames формата : 4 кадра
Идентификатор кодека : V_MPEG4/ISO/AVC
Продолжительность : 21 м.
Битрейт : 4660 Кбит/сек
Ширина : 1920 пикселей
Высота : 1080 пикселей
Соотношение сторон : 16:9
Режим частоты кадров : Постоянный
Частота кадров : 23,976 кадра/сек
Цветовое пространство : YUV
Субдискретизация насыщенности : 4:2:0
Битовая глубина : 8 бит
Тип развёртки : Прогрессивная
Бит/(Пиксели*Кадры) : 0.094
Размер потока : 720 Мбайт (84%)
Язык : English
Default : Да
Forced : Нет
Основные цвета : BT.709
Характеристики трансфера : BT.709
Коэффициенты матрицы : BT.709

Аудио #1
Идентификатор : 2
Формат : AC-3
Формат/Информация : Audio Coding 3
Расширение режима : CM (complete main)
Параметр Endianness формата : Big
Идентификатор кодека : A_AC3
Продолжительность : 21 м.
Вид битрейта : Постоянный
Битрейт : 384 Кбит/сек
Каналы : 6 каналов
Расположение каналов : Front: L C R, Side: L R, LFE
Частота : 48,0 КГц
Битовая глубина : 16 бит
Метод сжатия : С потерями
Размер потока : 59,3 Мбайт (7%)
Язык : Russian
Default : Да
Forced : Нет

Аудио #2
Идентификатор : 3
Формат : AC-3
Формат/Информация : Audio Coding 3
Расширение режима : CM (complete main)
Параметр Endianness формата : Big
Идентификатор кодека : A_AC3
Продолжительность : 21 м.
Вид битрейта : Постоянный
Битрейт : 384 Кбит/сек
Каналы : 6 каналов
Расположение каналов : Front: L C R, Side: L R, LFE
Частота : 48,0 КГц
Битовая глубина : 16 бит
Метод сжатия : С потерями
Размер потока : 59,3 Мбайт (7%)
Язык : English
Default : Нет
Forced : Нет

Текст
Идентификатор : 4
Формат : UTF-8
Идентификатор кодека : S_TEXT/UTF8
Идентификатор кодека/Информация : UTF-8 Plain Text
Язык : English
Default : Нет
Forced : Нет
PS убедительная просьба скачавших оставаться на раздаче подольше, желательно вечно <img class="smile" src="//static.t-ru.org/smiles/icon_wink.gif" alt="">

Трекер:  [ 03-Окт-2017 13:54 ]

  

Скачать .torrent

Размер .torrent файла 29 KB


Размер: 19.91 GB
Хэш (hash) релиза: e228a8b2ef1359cdbc19ce56f243a72b1dc73a82
Подписка на обновления:

Еще никто не оставлял запись к записи скачать торрент Гриффины Family Guy . Будь первым!

!Обратная связь