Скачать через торрент Динозаврик Динк Dink, the Little Dinosaur Фильм бесплатно в хорошем качестве torrent

Скачивайте на UnionPeer.org фильмы через торрент без регистрации. Новинки кино в хорошем качестве через торрент. На UnionPeer.org можно скачать через торрент фильмы 2014 и 2015 годов. Самые новые фильмы.

Скачать торрент Динозаврик Динк Dink, the Little Dinosaur бесплатно через .torrent фильм мультфильм сериал

Если у вас наблюдаются проблемы со скриншотами, переходом по ссылками, скачиванием торрентов - проблемы в блокировщике рекламы AdBlock. #хорошегоДня!


Статистика раздачи
Размер:  34.23 GB   |    Зарегистрирован:  19 дней   |    .torrent скачан:  6 раз   |   
Раздают:  1  
   
Загрузка...
 
Автор Сообщение

Galfimbul

avatar Galfimbul


Динозаврик Динк / Dink, the Little Dinosaur
Английское название: Dink, the Little Dinosaur
Русское название: Динозаврик Динк
Год выпуска: 1989
Страна: США.
Жанр: приключения
Продолжительность: ТВ (21 эп.), ~ 23 минуты
Перевод: Профессиональный (Полное Дублирование) "Нева-1" по заказу "ЕА"
Субтитры: НетРежиссёр: Билл Хаттен / Bill Hutten

Описание: Мультсериал о приключениях динозаврика Динка и его друзей. Главные герои - пять динозавров и одна черепаха. Смелый Динк и его друзья постоянно отправляются в интересные и опасные приключения, всегда готовы помочь тем, кому это необходимо, и порой противостоят хищным динозаврам, самый опасный - огромный тирранозавр, главный враг зеленой долины...

Релиз от:

Над релизом работали:

Lafleur1994 ....... Предоставил все кассеты Динка от ЕА
ALEKS KV .......Оцифровка видеокассет



Доп. Информация:
В релизе представлены все выходившие кассеты с Динком от ЕА:
Динозаврик Динк: Друг Шайлера (Имеет Hi-Fi звук)
Динозаврик Динк: Небо падает на зелёную лужайку (Имеет Hi-Fi звук)
Динозаврик Динк: Призрак пещеры (Имеет Hi-Fi звук)
Динозаврик Динк: Соперники (Имеет Hi-Fi звук)
Динозаврик Динк: Спокойной ночи, малыши (Имеет Hi-Fi звук)
Динозаврик Динк: Страна из которой нет возврата (Имеет Hi-Fi звук)

Оцифровка производилась с компонентных выходов при помощи тюнера Beholder H8. На кассете "Спокойной ночи, малыш" в промежутке 42:20-42:23 имеется перепад с Хай-фай звука на моно из-за убитых синхроимпульсов ленты. Сэмпл

Качество: VHSRip
Формат видео: MPEG2
Контейнер: MPG
Аудио кодек: AC3
Видео: MPEG2 Video 720x576 (4:3) 25.000fps 15 000 Kbps
Аудио:

русская: Dolby AC3 48000Hz stereo 384Kbps [ЕА] {Hi-Fi}
01. Игра в ракушки / Друг Шайлера
02. Динк, пора домой / Белая красавица
03. Крошка Красти / Вежливый охотник
04. Призрак пещеры / Высохшая река
05. Tricera-Scat / Поиск
06. Крестовый поход Эмбер / Любители старых времён
07. Uncle Longbeak / Сюрприз!
08. Пустое дерево / Badge Of Courage
09. Гора желаний / Новый дом для Красти
10. Маленькие штучки / Спокойной ночи, малыши
11. Mystery Of The Broken Claw / Встреча у плоского камня
12. В Зелёной Долине упало небо / Sea Rescue
13. Raiders Of The Lost Nest / Страна из которой нет возврата
14. Спасение из моря / Проблемы со смолой
15. Honeyfruit Hero / Tall Tale
16. Возвращение ворчуна Красти / Рассказ о чудище
17. Scat-ter Brained / Трусишка Скэт
18. The Reluctant Head-Banger / Весенние непорядки
19. Overrun / Последний из своего рода
20. Day Of The Snake / Соперники
21. Вызов / Секрет
Динозаврик Динк: Друг Шайлера
01a. Игра в ракушки / Друг Шайлера
02. Динк, пора домой / Белая красавица
05b. Поиск


Динозаврик Динк: Небо падает на зелёную лужайку
12a. В Зелёной Долине упало небо
09. Гора желаний / Новый дом для Красти
11b. Встреча у плоского камня
17b. Трусишка Скэт


Динозаврик Динк: Призрак Пещеры
04. Призрак пещеры / Высохшая река
03. Крошка Красти / Вежливый охотник
07b. Сюрприз!


Динозаврик Динк: Соперники
20b. Соперники
18b. Весенние непорядки
19b. Последний из своего рода
21. Вызов / Секрет


Динозаврик Динк: Спокойной ночи, малыши
10b. Спокойной ночи, малыши
10a. Маленькие штучки
06. Крестовый поход Эмбер / Любители старых времён
08a. Пустое дерево


Динозаврик Динк: Страна из которой нет возврата
13b. Страна из которой нет возврата
14. Спасение из моря / Проблемы со смолой
16. Возвращение ворчуна Красти / Рассказ о чудище
GeneralComplete name : xxx\[M-KV2501] Динозаврик Динк [Небо падает на зелёную лужайку] [DUB EA] [VHS] {Hi-Fi}.mpgFormat : MPEG-PSFile size : 5.63 GiBDuration : 56 min 32 sOverall bit rate mode : VariableOverall bit rate : 14.3 Mb/sWriting library : (dvd5: Oct 27 2015)

VideoID : 224 (0xE0)Format : MPEG VideoFormat version : Version 2Format profile : Main@MainFormat settings, BVOP : YesFormat settings, Matrix : CustomFormat settings, GOP : M=3, N=15Format settings, picture st : FrameDuration : 56 min 31 sBit rate mode : VariableBit rate : 13.6 Mb/sMaximum bit rate : 15.0 Mb/sWidth : 720 pixelsHeight : 576 pixelsDisplay aspect ratio : 4:3Frame rate : 25.000 FPSStandard : PALColor space : YUVChroma subsampling : 4:2:0Bit depth : 8 bitsScan type : InterlacedScan order : Top Field FirstCompression mode : LossyBits/(Pixel*Frame) : 1.312Time code of first frame : 00:00:00:00Time code source : Group of pictures headerGOP, Open/Closed : OpenStream size : 5.37 GiB (95%)Writing library : (dvd5: Oct 27 2015)

AudioID : 189 (0xBD)-128 (0x80)Format : AC-3Format/Info : Audio Coding 3Mode extension : CM (complete main)Format settings, Endianness : BigMuxing mode : DVD-VideoDuration : 56 min 32 sBit rate mode : ConstantBit rate : 384 kb/sChannel(s) : 2 channelsChannel positions : Front: L RSampling rate : 48.0 kHzFrame rate : 31.250 FPS (1536 spf)Bit depth : 16 bitsCompression mode : LossyDelay relative to video : -80 msStream size : 155 MiB (3%)Menu


Трекер:  [ 03-Окт-2017 05:54 ]

  

Скачать .torrent

Размер .torrent файла 172 KB


Размер: 34.23 GB
Хэш (hash) релиза: 5bfc541f579d54d5208c01b5a16e2be4a789a730
Подписка на обновления:

Еще никто не оставлял запись к записи скачать торрент Динозаврик Динк Dink, the Little Dinosaur . Будь первым!

!Обратная связь