Скачать через торрент музыку The Name Of The Rose бесплатно без регистрации torrent

Если у вас наблюдаются проблемы со скриншотами, переходом по ссылками, скачиванием торрентов - проблемы в блокировщике рекламы AdBlock. #хорошегоДня!


Статистика раздачи
Размер:  197 MB   |    Зарегистрирован:  16 дней   |    .torrent скачан:  8 раз   |   
Раздают:  1  
   
Загрузка...
 
Автор Сообщение

Galfimbul

avatar Galfimbul


The Name Of The Rose

Название альбома: The Name Of The Rose
Жанр: Score
Композитор: James Horner
Год выпуска диска: 1991
Аудиокодек: FLAC (*.flac)
Тип рипа: image+.cue
Битрейт аудио: lossless
Источник: собственный рип
Наличие сканов в содержимом раздачи: нет
Треклист:
01 - Main titles
02 - Beata viscera
03 - First recognition
04 - The lesson
05 - Kyrie
06 - The scriptorium
07 - Veni sancte spiritus
08 - The confession
09 - Flashbacks
10 - The discovery
11 - Betrayed
12 - Epilogue
13 - End titles

Note: I did this rip some times ago (!). I saw it was not present (It's a quite rare CD nowadays). So here it is in a modern form (flac instead of the original APE). Enjoy.
EAC extraction logfile from 23. November 2006, 18:16 for CDJames Horner / The name of the rose

Used drive : LITE-ON DVD SOHD-167T Adapter: 1 ID: 0Read mode : Secure with NO C2, accurate stream, disable cacheRead offset correction : 12Overread into Lead-In and Lead-Out : Yes

Used output format : Internal WAV Routines 44.100 Hz; 16 Bit; Stereo

Other options : Fill up missing offset samples with silence : No Delete leading and trailing silent blocks : No Native Win32 interface for Win NT & 2000

Range status and errorsSelected range Filename D:\CDImage.wav

Peak level 99.9 % Range quality 99.9 % CRC B502F2E4 Copy OK

No errors occured

End of status report
REM GENRE SoundtrackREM DATE 2000REM DISCID AD09DF0DREM COMMENT "ExactAudioCopy v0.95b4"PERFORMER "James Horner"TITLE "The name of the rose"FILE "CDImage.wav" WAVE TRACK 01 AUDIO TITLE "Main titles" PERFORMER "James Horner" INDEX 00 00:00:00 INDEX 01 00:00:33 TRACK 02 AUDIO TITLE "Beata viscera" PERFORMER "James Horner" INDEX 00 02:59:70 INDEX 01 03:02:08 TRACK 03 AUDIO TITLE "First recongnition" PERFORMER "James Horner" INDEX 00 05:23:06 INDEX 01 05:23:55 TRACK 04 AUDIO TITLE "The lesson" PERFORMER "James Horner" INDEX 00 07:54:17 INDEX 01 07:55:35 TRACK 05 AUDIO TITLE "Kyrie" PERFORMER "James Horner" INDEX 00 12:16:41 INDEX 01 12:16:55 TRACK 06 AUDIO TITLE "The scriptorium" PERFORMER "James Horner" INDEX 00 14:40:24 INDEX 01 14:41:00 TRACK 07 AUDIO TITLE "Veni sancte spiritus" PERFORMER "James Horner" INDEX 00 18:34:56 INDEX 01 18:38:30 TRACK 08 AUDIO TITLE "The confession" PERFORMER "James Horner" INDEX 00 21:51:59 INDEX 01 21:54:10 TRACK 09 AUDIO TITLE "Flashbacks" PERFORMER "James Horner" INDEX 00 25:04:19 INDEX 01 25:06:58 TRACK 10 AUDIO TITLE "The discovery" PERFORMER "James Horner" INDEX 00 27:12:45 INDEX 01 27:12:58 TRACK 11 AUDIO TITLE "Betrayed " PERFORMER "James Horner" INDEX 00 29:40:58 INDEX 01 29:41:50 TRACK 12 AUDIO TITLE "Epilogue" PERFORMER "James Horner" INDEX 00 32:37:63 INDEX 01 32:39:68 TRACK 13 AUDIO TITLE "End titles" PERFORMER "James Horner" INDEX 00 38:46:72 INDEX 01 38:54:63


Трекер:  [ 02-Окт-2017 21:06 ]

  

Скачать .torrent

Размер .torrent файла 16 KB


Размер: 197 MB
Хэш (hash) релиза: 9bd4fe7cdc6f019b3e7935115583805b8b21bce0

Торренты, похожие на The Name Of The Rose скачать торрент

Форум Название Автор Размер S L Добавлен
Rосk | Mеtаl | Аltеrnаtivе, Рunk, Indереndеnt (mр3) ·· (Power Metal) Cassus Belli - In The Name Of Rose (2005) [MP3, 320 kbps] Galfimbul 130520037124 MB 0 0 1419846090

12:41

29-Дек-14

Rосk | Mеtаl | Аltеrnаtivе, Рunk, Indереndеnt (mр3) ·· (Power Metal) Casus Belli - In The Name Of Rose - 2005, MP3, 320 kbps Galfimbul 140640551134 MB 0 0 1371285907

11:45

15-Июн-13

Еще никто не оставлял запись к записи скачать торрент The Name Of The Rose . Будь первым!

!Обратная связь