Скачать через торрент Мой маленький пони. Девочки из эквестрии - Волшебная ночь кино My Little Pony: Equestria Girls Specials - Magical Movie Night Фильм бесплатно в хорошем качестве torrent

Скачивайте на UnionPeer.org фильмы через торрент без регистрации. Новинки кино в хорошем качестве через торрент. На UnionPeer.org можно скачать через торрент фильмы 2014 и 2015 годов. Самые новые фильмы.

Скачать торрент Мой маленький пони. Девочки из эквестрии - Волшебная ночь кино My Little Pony: Equestria Girls Specials - Magical Movie Night бесплатно через .torrent фильм мультфильм сериал

Если у вас наблюдаются проблемы со скриншотами, переходом по ссылками, скачиванием торрентов - проблемы в блокировщике рекламы AdBlock. #хорошегоДня!


Статистика раздачи
Размер:  2.82 GB   |    Зарегистрирован:  20 дней   |    .torrent скачан:  28 раз   |   
Раздают:  1  
   
Загрузка...
 
Автор Сообщение

Galfimbul

avatar Galfimbul


Мой маленький пони. Девочки из эквестрии - Волшебная ночь кино / My Little Pony: Equestria Girls Specials - Magical Movie Night
Страна: США
Жанр: Приключения, семейный, фэнтези
Продолжительность: 01:06:21
Год выпуска: 2017
Перевод 1: Любительский (двухголосый закадровый) (TheDoctor Team)
Перевод 2: Любительский (многоголосый закадровый) (Surprise Pie)
Перевод 3: Любительский (многоголосый закадровый) (Black Fire studio)
Русские субтитры: есть

Режиссер: Иши Руделл / Ishi Rudell
Роли озвучивали: Тара Стронг, Эшли Болл, Андреа Либман, Табита Сен-Жермен, Кэти Уэслак, Ребекка Шойкет и другие

Описание: Возьмите попкорн и насладитесь тремя волшебными приключениями знаменитых Девочек из Эквестрии. В главных ролях всеми любимые персонажи из школы Кантерлота, которым предстоит поучаствовать в конкурсе танцевальных музыкальных видео с ученицами Кристальной Академии, побывать за кулисами съемок увлекательного фильма о приключениях Дэринг Ду и столкнуться с опасными последствиями применения волшебного зеркала.

Предыдущие и альтернативные раздачи
Рейтинг:

Качество: WEB-DL 1080p (YP-1R-EQGSPE-MMN)
Формат: MKV
Видео: AVC, 1912x1072 (16:9), 23.976 fps, ~5116 kbps
Аудио 1 Rus: AC3, 48 kHz, 2 ch, 192 kbps (TheDoctor Team)
Аудио 2 Rus: AC3, 48 kHz, 2 ch, 192 kbps (Surprise Pie)
Аудио 3 Rus: AC3, 48 kHz, 2 ch, 192 kbps (Black Fire studio)
Аудио 4 Eng: AC3, 48 kHz, 6 ch, 384 kbps (Original)
Субтитры 1 Rus: (Anon2Anon)
Субтитры 2 Rus: (TheDoctor Team)
Субтитры 3 Eng: (Anon2Anon)
01. Магия танца (Dance Magic)
Когда Рэрити узнает про конкурс музыкальных видео, она пытается уговорить своих подруг из школы Кантерлота принять в нем участие. Позже Девчонки узнают, что студенты из Кристальной Академии тоже заинтересованы в данном конкурсе. Но проблема в том, что у студентов из Кристальной Академии и ресурсов больше, и танцоры лучше. Смогут ли Девчонки сплотиться и создать более захватывающее музыкальное видео?
02. Магия кино (Movie Magic)
Девочки из Эквестрии получают от известной писательницы А.К.Йерлинг приглашение на съемки нового фильма о Дэринг Ду, чему они несказанно рады. Для супер-фаната Рэйнбоу Дэш наблюдать, как ее любимая героиня оживает - это сбывшаяся мечта. Но когда редкая и важная реликвия из реквизита пропадает, съемки приостанавливают, и мечта Рэйнбоу Дэш превращается в кошмар.
03. Магия зеркала (Mirror Magic)
Поскольку страницы в ее журнале заканчиваются, для Сансет Шиммер остается один выход: вернуться в Эквестрию и получить новый журнал! Там она встречает Старлайт Глиммер и соглашается вернуться вместе с ней, чтобы показать ей жизнь Кантерлотской школы. Но пока Сансет Шиммер отсутствовала, мстительная Джунипер Монтаж находит прекрасное зеркало, зачарованное эквестрийской магией.
TheDoctor Team: Дарья Портнягина, Николай Безходарнов
Surprise Pie: Кристина Мищенко, Ирина Чермянина, Ponyzal
Black Fire studio: Марина Моисеева, Даша Романова, Анастасия Скачкова, Настена Сивкова, Лера Гаранина, Алиса Громова, Вячеслав Серебряков, Виктор Абраев, Рита Кудряшова
На iMDB этот минисериал называется "My Little Pony: Equestria Girls Specials", а в Википедии указан дополнительный подзаголовок "Magical Movie Night", с которым он официально выпущен единой полнометражкой на DVD и в iTunes. Информация на Кинопоиске не обнаружена.
ОбщееУникальный идентификатор : 247053312427735579569582710192147550207 (0xB9DCBCBADF9CD7678BB4DA82E2184FFF)Полное имя : D:\Video\Mults\mlp.egs.magical.movie.night.2017.web-dl.1080p.mkvФормат : MatroskaВерсия формата : Version 4 / Version 2Размер файла : 2,82 ГбайтПродолжительность : 1 ч. 6 м.Общий поток : 6080 Кбит/секДата кодирования : UTC 2017-10-02 13:54:29Программа кодирования : mkvmerge v11.0.0 ('Alive') 64bitБиблиотека кодирования : libebml v1.3.4 + libmatroska v1.4.5

ВидеоИдентификатор : 1Формат : AVCФормат/Информация : Advanced Video CodecПрофиль формата : High@L4Параметр CABAC формата : ДаПараметр ReFrames формата : 4 кадраИдентификатор кодека : V_MPEG4/ISO/AVCПродолжительность : 1 ч. 6 м.Битрейт : 5116 Кбит/секШирина : 1912 пикселейВысота : 1072 пикселяСоотношение сторон : 16:9Режим частоты кадров : ПостоянныйЧастота кадров : 23,976 (23976/1000) кадра/секЦветовое пространство : YUVСубдискретизация насыщенности : 4:2:0Битовая глубина : 8 битТип развёртки : ПрогрессивнаяБит/(Пиксели*Кадры) : 0.104Размер потока : 2,37 Гбайт (84%)Язык : EnglishDefault : ДаForced : НетЦветовой диапазон : LimitedОсновные цвета : BT.709Характеристики трансфера : BT.709Коэффициенты матрицы : BT.709

Аудио #1Идентификатор : 2Формат : AC-3Формат/Информация : Audio Coding 3Расширение режима : CM (complete main)Параметр Endianness формата : BigИдентификатор кодека : A_AC3Продолжительность : 1 ч. 6 м.Вид битрейта : ПостоянныйБитрейт : 192 Кбит/секКаналы : 2 каналаРасположение каналов : Front: L RЧастота : 48,0 КГцЧастота кадров : 31,250 кадров/сек (1536 spf)Метод сжатия : С потерямиРазмер потока : 91,1 Мбайт (3%)Заголовок : TheDoctor TeamЯзык : RussianDefault : ДаForced : Нет

Аудио #2Идентификатор : 3Формат : AC-3Формат/Информация : Audio Coding 3Расширение режима : CM (complete main)Параметр Endianness формата : BigИдентификатор кодека : A_AC3Продолжительность : 1 ч. 6 м.Вид битрейта : ПостоянныйБитрейт : 192 Кбит/секКаналы : 2 каналаРасположение каналов : Front: L RЧастота : 48,0 КГцЧастота кадров : 31,250 кадров/сек (1536 spf)Метод сжатия : С потерямиРазмер потока : 91,1 Мбайт (3%)Заголовок : Surprise PieЯзык : RussianDefault : НетForced : Нет

Аудио #3Идентификатор : 4Формат : AC-3Формат/Информация : Audio Coding 3Расширение режима : CM (complete main)Параметр Endianness формата : BigИдентификатор кодека : A_AC3Продолжительность : 1 ч. 6 м.Вид битрейта : ПостоянныйБитрейт : 192 Кбит/секКаналы : 2 каналаРасположение каналов : Front: L RЧастота : 48,0 КГцЧастота кадров : 31,250 кадров/сек (1536 spf)Метод сжатия : С потерямиРазмер потока : 91,1 Мбайт (3%)Заголовок : Black Fire studioЯзык : RussianDefault : НетForced : Нет

Аудио #4Идентификатор : 5Формат : AC-3Формат/Информация : Audio Coding 3Расширение режима : CM (complete main)Параметр Endianness формата : BigИдентификатор кодека : A_AC3Продолжительность : 1 ч. 6 м.Вид битрейта : ПостоянныйБитрейт : 384 Кбит/секКаналы : 6 каналовРасположение каналов : Front: L C R, Side: L R, LFEЧастота : 48,0 КГцЧастота кадров : 31,250 кадров/сек (1536 spf)Метод сжатия : С потерямиРазмер потока : 182 Мбайт (6%)Заголовок : OriginalЯзык : EnglishDefault : НетForced : Нет

Текст #1Идентификатор : 6Формат : ASSИдентификатор кодека : S_TEXT/ASSИдентификатор кодека/Информация : Advanced Sub Station AlphaПродолжительность : 1 ч. 4 м.Битрейт : 194 бит/секCount of elements : 1151Метод сжатия : Без потерьРазмер потока : 92,3 Кбайт (0%)Заголовок : Anon2AnonЯзык : RussianDefault : НетForced : Нет

Текст #2Идентификатор : 7Формат : ASSИдентификатор кодека : S_TEXT/ASSИдентификатор кодека/Информация : Advanced Sub Station AlphaПродолжительность : 1 ч. 4 м.Битрейт : 201 бит/секCount of elements : 1098Метод сжатия : Без потерьРазмер потока : 95,5 Кбайт (0%)Заголовок : TheDoctor TeamЯзык : RussianDefault : НетForced : Нет

Текст #3Идентификатор : 8Формат : ASSИдентификатор кодека : S_TEXT/ASSИдентификатор кодека/Информация : Advanced Sub Station AlphaПродолжительность : 1 ч. 4 м.Битрейт : 137 бит/секCount of elements : 1151Метод сжатия : Без потерьРазмер потока : 65,3 Кбайт (0%)Заголовок : Anon2AnonЯзык : EnglishDefault : НетForced : Нет


Трекер:  [ 02-Окт-2017 17:24 ]

  

Скачать .torrent

Размер .torrent файла 14 KB


Размер: 2.82 GB
Хэш (hash) релиза: 0ad8f8116c6b17d96064ec527d55b4a9d33c76ad
Подписка на обновления:

Еще никто не оставлял запись к записи скачать торрент Мой маленький пони. Девочки из эквестрии - Волшебная ночь кино My Little Pony: Equestria Girls Specials - Magical Movie Night . Будь первым!

!Обратная связь