Скачать через торрент [MULT] Приключения Вуди и его друзей The Woody Woodpecker Show бесплатно русская версия torrent активатор

Если у вас наблюдаются проблемы со скриншотами, переходом по ссылками, скачиванием торрентов - проблемы в блокировщике рекламы AdBlock. #хорошегоДня!


Статистика раздачи
Размер:  3.81 GB   |    Зарегистрирован:  20 дней   |    .torrent скачан:  7 раз   |   
Раздают:  1  
   
Загрузка...
 
Автор Сообщение

Galfimbul

avatar Galfimbul


Приключения Вуди и его друзей / The Woody Woodpecker Show
Год выпуска: 1940-1972
Страна: США
Жанр: мультфильм, комедия, семейный
Продолжительность: ~ 00:07:00 серия
Перевод: Профессиональный (полное дублирование) Selena Int., по заказу ОРТ (на большинство серий в раздаче)
Перевод#2: Авторский (одноголосый закадровый) А.Гаврилов, В.Горчаков (на серии №17, 26, 75, 111)
Субтитры: русские, вшитые в видеоряд (только для серии №118)Режиссер: Пол Дж. Смит / Paul J. SmithОписание: Нет на Земле человека, который не знал бы эту маленькую и невероятно забавную птичку. Угадали, о ком идет речь? Конечно же, о самом знаменитом "стукаче" в мире - легендарном дятле Вуди!

У этого сериала масса достоинств — оригинальная анимация, которая отличает его от всех остальных мультфильмов, захватывающие сюжеты и трюки, которые не смогли бы исполнить самые лучшие каскадеры мира. Но в первую очередь, это очень смешной мультик.Качество: DVDRip, SATRip, IPTVRip, TVRip
Формат: 3GP
Видео кодек: MPEG4-Visual
Аудио кодек: AAC
Видео: MPEG4-Visual, 320x240 (4:3), 23.976 fps, 320 Kbps (0.174 bit/pixel)
Аудио: Русский, AAC, 2 ch, 128 Kbps, 48 KHz
Общее
Полное имя : D:\Раздачи\Woody.Woodpecker.320x\001 - Woody Woodpecker [DVDRip].3gp
Формат : MPEG-4
Профиль формата : 3GPP Media Release 4
Идентификатор кодека : 3gp4 (isom/iso2/3gp4)
Размер файла : 22,5 Мбайт
Продолжительность : 6 м. 57 с.
Режим общего битрейта : Постоянный
Общий поток : 452 Кбит/сек

Видео
Идентификатор : 1
Формат : MPEG-4 Visual
Профиль формата : Simple@L3
Параметр BVOP формата : Нет
Параметр QPel формата : Нет
Параметр GMC формата : Без точки перехода
Параметр матрицы формата : Default (H.263)
Идентификатор кодека : 20
Продолжительность : 6 м. 57 с.
Вид битрейта : Постоянный
Битрейт : 320 Кбит/сек
Ширина : 320 пикселей
Высота : 240 пикселей
Соотношение сторон : 4:3
Режим частоты кадров : Постоянный
Частота кадров : 23,976 (24000/1001) кадра/сек
Цветовое пространство : YUV
Субдискретизация насыщенности : 4:2:0
Битовая глубина : 8 бит
Тип развёртки : Прогрессивная
Метод сжатия : С потерями
Бит/(Пиксели*Кадры) : 0.174
Размер потока : 15,9 Мбайт (71%)
Библиотека кодирования : XviD 1.2.1 (UTC 2008-12-04)

Аудио
Идентификатор : 2
Формат : AAC
Формат/Информация : Advanced Audio Codec
Профиль формата : LC
Идентификатор кодека : 40
Продолжительность : 6 м. 57 с.
Вид битрейта : Постоянный
Битрейт : 128 Кбит/сек
Каналы : 2 канала
Расположение каналов : Front: L R
Частота : 48,0 КГц
Частота кадров : 46,875 кадров/сек (1024 spf)
Метод сжатия : С потерями
Размер потока : 6,38 Мбайт (28%)
DVDRip:
SATRip:
IPTVRip:
TVRip:
Все 196 серий в одной раздаче!

Трекер:  [ 02-Окт-2017 17:12 ]

  

Скачать .torrent

Размер .torrent файла 32 KB


Размер: 3.81 GB
Хэш (hash) релиза: 4a61382eb763a4a6d1d023c81f879f5018976f2a

Еще никто не оставлял запись к записи скачать торрент [MULT] Приключения Вуди и его друзей The Woody Woodpecker Show . Будь первым!

!Обратная связь