Скачать через торрент Рапунцель: Дорога к мечте Tangled: Before Ever After Фильм бесплатно в хорошем качестве torrent

Скачивайте на UnionPeer.org фильмы через торрент без регистрации. Новинки кино в хорошем качестве через торрент. На UnionPeer.org можно скачать через торрент фильмы 2014 и 2015 годов. Самые новые фильмы.

Скачать торрент Рапунцель: Дорога к мечте Tangled: Before Ever After бесплатно через .torrent фильм мультфильм сериал

Если у вас наблюдаются проблемы со скриншотами, переходом по ссылками, скачиванием торрентов - проблемы в блокировщике рекламы AdBlock. #хорошегоДня!


Статистика раздачи
Размер:  2.2 GB   |    Зарегистрирован:  21 день   |    .torrent скачан:  318 раз   |   
Раздают:  4  
   
Загрузка...
 
Автор Сообщение

Galfimbul

avatar Galfimbul


Название: Рапунцель: Дорога к мечте
Оригинальное название: Tangled: Before Ever After
Год выхода: 2017
Жанр: мультфильм, приключения, семейный, детский
Режиссер: Том Колфилд, Стивен Sandobal
В ролях: Мэнди Мур, Закари Ливай, Иден Эспиноза, Джули Боуэн, Клэнси Браун, Лаура Бенанти

О фильме: Прошло полгода после того, как Рапунцель вновь обрела родителей и узнала, что она Принцесса. Совсем скоро должна состояться ее коронация, но девушка понимает, что она еще к этому не готова. Природная любознательность и желание увидеть мир, которого она была лишена в заточении, заставляют будущую Принцессу вновь отправиться навстречу захватывающим приключениям…

Страна: США, 9 Story Entertainment, Walt Disney Television Animation
Продолжительность: 00:55:01
Перевод: Професиональный (дублированый)



Файл
Кодек: MPEG-4 AVC
Качество: WEB-DL 1080p
Видео: 5025 Кбит/с, 1920x1080
Звук:
Русский (AC3, 2 ch, 192 Кбит/с)
Английский (AC3, 6 ch, 384 Кбит/с)

Субтитры: Английские

Семпл</a>
Общее
Уникальный идентификатор : 191603640429369642594820004956516513797 (0x902584D3B95C0A1CA13B24F05F81F805)
Полное имя : D:КиноРапунцель.Дорога.к.мечте.2017.WEB-DL.1080p.Rus.Eng.mkv
Формат : Matroska
Версия формата : Version 4 / Version 2
Размер файла : 2,20 Гбайт
Продолжительность : 55 м.
Общий поток : 5711 Кбит/сек
Дата кодирования : UTC 2017-10-01 07:26:41
Программа кодирования : mkvmerge v8.2.0 ('World of Adventure') 64bit
Библиотека кодирования : libebml v1.3.1 + libmatroska v1.4.2
DURATION : 00:55:01.728000000
NUMBER_OF_FRAMES : 103179
NUMBER_OF_BYTES : 79241472
_STATISTICS_WRITING_APP : mkvmerge v8.2.0 ('World of Adventure') 64bit
_STATISTICS_WRITING_DATE_UTC : 2017-10-01 07:26:41
_STATISTICS_TAGS : BPS DURATION NUMBER_OF_FRAMES NUMBER_OF_BYTES

Видео
Идентификатор : 1
Формат : AVC
Формат/Информация : Advanced Video Codec
Профиль формата : High@L4.0
Параметр CABAC формата : Да
Параметр ReFrames формата : 4 кадра
Идентификатор кодека : V_MPEG4/ISO/AVC
Продолжительность : 55 м.
Битрейт : 5022 Кбит/сек
Ширина : 1920 пикселей
Высота : 1080 пикселей
Соотношение сторон : 16:9
Режим частоты кадров : Постоянный
Частота кадров : 23,976 кадра/сек
Цветовое пространство : YUV
Субдискретизация насыщенности : 4:2:0
Битовая глубина : 8 бит
Тип развёртки : Прогрессивная
Бит/(Пиксели*Кадры) : 0.101
Размер потока : 1,93 Гбайт (88%)
Язык : English
Default : Да
Forced : Нет
Основные цвета : BT.709
Характеристики трансфера : BT.709
Коэффициенты матрицы : BT.709

Аудио #1
Идентификатор : 2
Формат : AC-3
Формат/Информация : Audio Coding 3
Расширение режима : CM (complete main)
Параметр Endianness формата : Big
Идентификатор кодека : A_AC3
Продолжительность : 55 м.
Вид битрейта : Постоянный
Битрейт : 192 Кбит/сек
Каналы : 2 канала
Расположение каналов : Front: L R
Частота : 48,0 КГц
Битовая глубина : 16 бит
Метод сжатия : С потерями
Размер потока : 75,6 Мбайт (3%)
Язык : Russian
Default : Да
Forced : Нет

Аудио #2
Идентификатор : 3
Формат : AC-3
Формат/Информация : Audio Coding 3
Расширение режима : CM (complete main)
Параметр Endianness формата : Big
Идентификатор кодека : A_AC3
Продолжительность : 55 м.
Вид битрейта : Постоянный
Битрейт : 384 Кбит/сек
Каналы : 6 каналов
Расположение каналов : Front: L C R, Side: L R, LFE
Частота : 48,0 КГц
Битовая глубина : 16 бит
Метод сжатия : С потерями
Размер потока : 151 Мбайт (7%)
Язык : English
Default : Нет
Forced : Нет

Текст
Идентификатор : 4
Формат : UTF-8
Идентификатор кодека : S_TEXT/UTF8
Идентификатор кодека/Информация : UTF-8 Plain Text
Язык : English
Default : Да
Forced : Нет
Источник http://arutor.org

Трекер:  [ 01-Окт-2017 12:20 ]

  

Скачать .torrent

Размер .torrent файла 11 KB


Размер: 2.2 GB
Хэш (hash) релиза: 7e06f9be00a5c4eb90a13498c2f8a9a66000cd81
Подписка на обновления:

gtk87

деградация мультипликации на лицо

Хотите добавить комментарий к записи скачать торрент Рапунцель: Дорога к мечте Tangled: Before Ever After

!Обратная связь