Скачать порно через торрент Алекс Мэй - Как организовать секс с двумя девушками UnionPeer.org бесплатно онлайн HD качество

Скачать новое порно 2015, 2014 новинки через торрент UnionPeer.org

Порно торрент бесплатно ЮнионПир.орг

Если у вас наблюдаются проблемы со скриншотами, переходом по ссылками, скачиванием торрентов - проблемы в блокировщике рекламы AdBlock. #хорошегоДня!


Статистика раздачи
Размер:  653 MB   |    Зарегистрирован:  20 дней   |    .torrent скачан:  144 раза   |   
Раздают:  3  
   
Загрузка...
 
Автор Сообщение

Galfimbul

avatar Galfimbul


Алекс Мэй - Как организовать секс с двумя девушками

Год производства: 2011 г.
Страна: Россия
Жанр: Cексология
Продолжительность: 00:35:24
Язык: Русский

В ролях: Алекс Мэй

Описание:
Привет! Меня зовут Алекс Мэй. Я секс-коуч из Голландии.

Сейчас мы поговорим о распространенном вопросе: секс с двумя женщинами – как сделать это правильно?

Это мечта многих, но когда доходит до дела, то попытка заканчивается отказом партнерши, либо колоссальными проблемами в отношениях.

Вопрос на самом действительно тонкий, он касается среди прочего и женской ревности.

Итак, как правильно?

Во-первых, как нужно правильно подать саму идею «трио». Ни в коем случае не подавайте его с точки зрения типичной фразы: «О… я посмотрел… видюшку, две женщины и мужчина…о…я тоже хочу» Этого неправильно. Женщина скорее всего откажет.

Что же делать? Подавайте с точки зрения расширения ее сексуального кругозора. Не вашего, а именно ее! Например: «Слушай, а я вот прочитал тут недавно статью, оказывается, очень многих женщин эротически привлекают другие женщины или они просто визуально наслаждаются женским телом, либо у них был какой-то опыт… Слушай, прикольно!»

Это должно быть подано, как обыденный разговор.

Посмотрите на ее реакцию. Если вы преподнесете это правильно, и у вас правильно открыты каналы коммуникации и есть доверие, то вполне возможно ваша девушка может сказать: «Да, а что такого, это нормально».

Тогда развейте эту тему с точки зрения расширения ее сексуального кругозора. «Слушай, а тебе не было бы интересно это попробовать, потому что я нормальный, понимающий мужик?» Конечно, будьте готовы к вопросу: «А, тебе, небось, тоже хочется?» – «Да, слушай, конечно, мне тоже хочется. Но, тем не менее, почему бы не попробовать?»

Вот в такой ненавязчивой спокойной манере этот предмет нужно попробовать подать и посмотреть на ее реакцию.

Конечно, она может испугаться того, что она вас потеряет. Ведь она возможно когда-то уже попробовала и обожглась.

Если ее лучшая подружка когда-то таким образом увела у нее бойфренда, то, скорее всего, с этим связаны негативные якоря и эмоции, которые вам и не удастся пройти. Просто спокойно посмотрите на ее реакцию.

Пару раз в течение 2-х недель поднимите этот вопрос, посмотрите на то, как она вам ответит. Если она ответит положительно — вы сможете пройти дальше.

Если же она оба раза она однозначно сказала «Нет», то не пытайтесь ее продавить.

В случае, если положительный ответ получен, вам предстоит договориться с ней, на каких условиях это трио произойдет. Возможно, ей будет что-то неприятно, например, ей может не понравиться девушка, которую выберите вы. Пускай девушку всегда выбирает она.

Также необходимо договориться, как будете вы вести себя во время секса. Спросите ее о правилах – она вам ответит. Может быть, вам нельзя будет целовать новую девушку, может быть, вам нельзя будет кончать в новую девушку.

Это будет некий контракт, составленный между вами, и вы должны будете его выполнять. Отведите на это время, сядьте и обговорите, как будет происходить ваше трио для того, чтобы ваша девушка была спокойна.

Поймите, что больше всего она боится пойти у вас на поводу и потом себя за это проклинать, потому что она вас потеряла. Чтобы это предотвратить, обязательно составьте список правил и придерживайтесь его.

Теперь самое важное: когда вы окажетесь в постели с новой девушкой и со своей постоянной, у вас будет огромное желание накинуться на новую и заняться сексом с ней.

Не делайте этого! Есть золотое правило «80/20». Первые несколько раз секса пусть это правило будет действительно для вас. 80% времени вы будете заниматься своей девушкой и 20% времени – новой. Это должно быть очень четко прописано у вас в мозгу.

Конечно, понадобится самообладание, но это окупит себя. Почему?

Потому что через какое-то количество раз ваша девушка поймет, что вы себя контролируете, что вы мужчина, который заинтересован в ней, а не в новых девчонках и у вас это время может сократиться 50/50.

Итак, это было о том, что касается «той техники безопасности», которую необходимо соблюдать, если вы хотите правильно, не подвергая опасности свои отношения, провести трио.

Успеха вам!
Общее
Полное имя : Алекс Мэй - Как организовать секс с двумя девушками.mpg
Формат : MPEG-PS
Размер файла : 653 Мбайт
Продолжительность : 35 м.
Режим общего битрейта : Переменный
Общий поток : 2580 Кбит/сек

Видео
Идентификатор : 224 (0xE0)
Формат : MPEG Video
Версия формата : Version 2
Профиль формата : Main@High 1440
Параметр BVOP формата : Да
Параметр матрицы формата : По умолчанию
Параметр GOP формата : M=3, N=12
Продолжительность : 35 м.
Вид битрейта : Переменный
Битрейт : 2145 Кбит/сек
Максимальный битрейт : 4000 Кбит/сек
Ширина : 860 пикселей
Высота : 484 пикселя
Соотношение сторон : 16:9
Частота кадров : 25,000 кадров/сек
Стандарт вещания : PAL
Цветовое пространство : YUV
Субдискретизация насыщенности : 4:2:0
Битовая глубина : 8 бит
Тип развёртки : Прогрессивная
Метод сжатия : С потерями
Бит/(Пиксели*Кадры) : 0.206
Временной код первого кадра : 00:00:00:00
Оригинал временного кода : Group of pictures header
GOP, открыто/закрыто : Открыто
GOP, открыто/закрыто на первом кадре : Закрыто
Размер потока : 543 Мбайт (83%)
Основные цвета : BT.709
Характеристики трансфера : BT.709
Коэффициенты матрицы : BT.709

Аудио
Идентификатор : 192 (0xC0)
Формат : MPEG Audio
Версия формата : Version 1
Профиль формата : Layer 2
Продолжительность : 35 м.
Вид битрейта : Постоянный
Битрейт : 384 Кбит/сек
Каналы : 2 канала
Частота : 48,0 КГц
Метод сжатия : С потерями
Задержка видео : 104 мс.
Размер потока : 97,3 Мбайт (15%)
Качество видео: CamRip
Формат видео: MPEG
Видео: 860x484 ~2145 kbps
Аудио: MP3, 384 kbps (CBR), 2 Ch, 448000 Hz


Трекер:  [ 01-Окт-2017 11:10 ]

  

Скачать .torrent

Размер .torrent файла 13 KB


Размер: 653 MB
Хэш (hash) релиза: 1788b2cc85d79fa153ffe6bab20985e6d6b3cc52

Еще никто не оставлял запись к записи скачать торрент Алекс Мэй - Как организовать секс с двумя девушками . Будь первым!

!Обратная связь