Скачать через торрент Гоголь. Начало Фильм бесплатно в хорошем качестве torrent

Скачивайте на UnionPeer.org фильмы через торрент без регистрации. Новинки кино в хорошем качестве через торрент. На UnionPeer.org можно скачать через торрент фильмы 2014 и 2015 годов. Самые новые фильмы.

Скачать торрент Гоголь. Начало бесплатно через .torrent фильм мультфильм сериал

Если у вас наблюдаются проблемы со скриншотами, переходом по ссылками, скачиванием торрентов - проблемы в блокировщике рекламы AdBlock. #хорошегоДня!


Статистика раздачи
Размер:  744 MB   |    Зарегистрирован:  15 дней   |    .torrent скачан:  43 раза   |   
Раздают:  1  
   
Загрузка...
 
Автор Сообщение

Galfimbul

avatar Galfimbul


Гоголь. Начало

Выпущено: Каропрокат
Жанр: приключения, триллер, детектив
Год выпуска: 2017
Продолжительность: 01:46:42
Субтитры: нетРежиссер: Егор БарановВ ролях: Александр Петров, Олег Меньшиков, Евгений Стычкин, Таисия Вилкова, Артем Ткаченко, Юлия Франц, Евгений Сытый, Ян Цапник, Сергей Бадюк, Марта ТимофееваОписание: Казаки, ведьмы, русалки, утопленницы и другие обитатели Диканьки встречаются лицом к лицу со своим создателем Николаем Гоголем, молодым писарем из Петербурга, который страдает загадочными припадками и может общаться с персонажами из потустороннего мира. Вместе со своим начальником, блестящим столичным следователем Яковым Гуро, начинающий писатель приезжает на Полтавщину расследовать таинственные убийства девушек. Здесь же он встречает свою любовь, которой суждено сыграть роковую роль в его судьбе. Но хватит ли юному литератору духу противостоять невообразимому? Ведь по слухам, которые активно разносят напуганные местные жители, за преступлениями стоит не кто иной, как сам Дьявол в обличии черного всадника.Качество видео: WEB-DLRip | Gogol.Nachalo.2017.1080p.WEB-DL.Rus.EliteHD
Формат видео: AVI

Видео: 688x288 (2.39:1), 24.000 fps, XviD build 73 ~837 kbps avg, 0.18 bit/pixel
Аудио: 48 kHz, MPEG Layer 3, 2 ch, ~128.00 kbps avgСкачать сэмпл
Format                      : AVI
Format/Info                 : Audio Video Interleave
File size                   : 744 MiB
Duration                    : 1 h 46 min
Overall bit rate            : 975 kb/s
Writing application         : VirtualDubMod 1.5.10.3 | www.virtualdub-fr.org || (build 2550/release)
Writing library             : VirtualDubMod build 2550/release

Video
ID                          : 0
Format                      : MPEG-4 Visual
Format profile              : Advanced Simple@L5
Format settings, BVOP       : 1
Format settings, QPel       : No
Format settings, GMC        : No warppoints
Format settings, Matrix     : Custom
Codec ID                    : XVID
Codec ID/Hint               : XviD
Duration                    : 1 h 46 min
Bit rate                    : 838 kb/s
Width                       : 688 pixels
Height                      : 288 pixels
Display aspect ratio        : 2.40:1
Frame rate                  : 24.000 FPS
Color space                 : YUV
Chroma subsampling          : 4:2:0
Bit depth                   : 8 bits
Scan type                   : Progressive
Compression mode            : Lossy
Bits/(Pixel*Frame)          : 0.176
Stream size                 : 639 MiB (86%)
Writing library             : XviD 73

Audio
ID                          : 1
Format                      : MPEG Audio
Format version              : Version 1
Format profile              : Layer 3
Codec ID                    : 55
Codec ID/Hint               : MP3
Duration                    : 1 h 46 min
Bit rate mode               : Constant
Bit rate                    : 128 kb/s
Channel(s)                  : 2 channels
Sampling rate               : 48.0 kHz
Compression mode            : Lossy
Stream size                 : 97.7 MiB (13%)
Alignment                   : Aligned on interleaves
Interleave, duration        : 42  ms (1.00 video frame)
Interleave, preload duratio : 504  ms
Writing library             : LAME3.99r
Encoding settings           : -m s -V 4 -q 2 -lowpass 17 -b 128


Трекер:  [ 01-Окт-2017 08:24 ]

  

Скачать .torrent

Размер .torrent файла 15 KB


Размер: 744 MB
Хэш (hash) релиза: 7c8699f2f5b5dcea10c2eac2b6c4e87821159f96
Подписка на обновления:

Торренты, похожие на Гоголь. Начало скачать торрент

Форум Название Автор Размер S L Добавлен
Российские фильмы 2016-2017 (Новинки русского кино) ·· Гоголь. Начало (Егор Баранов) [2017 г., приключения, триллер, детектив, WEB-DL 1080p] iTunes Galfimbul 39403596473.67 GB 0 0 1507600222

04:50

10-Окт-17

Российские фильмы 2016-2017 (Новинки русского кино) ·· Гоголь. Начало (Егор Баранов) [2017 г., приключения, триллер, детектив, WEB-DLRip] iTunes Galfimbul 15686021121.46 GB 24 35 1507594227

03:10

10-Окт-17

Российские фильмы 2016-2017 (Новинки русского кино) ·· Гоголь. Начало (Егор Баранов) [2017 г., приключения, триллер, детектив, WEB-DLRip] iTunes Galfimbul 781576178745 MB 5 31 1507594216

03:10

10-Окт-17

Российские фильмы 2016-2017 (Новинки русского кино) ·· Гоголь. Начало (Егор Баранов) [2017 г., приключения, триллер, детектив, WEB-DL 720p] | iTunes Galfimbul 35518834793.31 GB 5 0 1506843475

10:37

1-Окт-17

Российские фильмы до 2016 ·· Гоголь. Начало (Егор Баранов) [2017, приключения, триллер, детектив, WEB-DLRip-AVC] Galfimbul 15790803231.47 GB 4 0 1506817660

03:27

1-Окт-17

Российские фильмы до 2016 ·· Гоголь. Начало (Егор Баранов) [2017, приключения, триллер, детектив, WEB-DLRip] Galfimbul 15658885121.46 GB 2 0 1506803702

23:35

30-Сен-17

Еще никто не оставлял запись к записи скачать торрент Гоголь. Начало . Будь первым!

!Обратная связь