Скачать через торрент Новые приключения Винни Пуха The New Adventures of Winnie the Pooh Фильм бесплатно в хорошем качестве torrent

Скачивайте на UnionPeer.org фильмы через торрент без регистрации. Новинки кино в хорошем качестве через торрент. На UnionPeer.org можно скачать через торрент фильмы 2014 и 2015 годов. Самые новые фильмы.

Скачать торрент Новые приключения Винни Пуха The New Adventures of Winnie the Pooh бесплатно через .torrent фильм мультфильм сериал

Если у вас наблюдаются проблемы со скриншотами, переходом по ссылками, скачиванием торрентов - проблемы в блокировщике рекламы AdBlock. #хорошегоДня!


Статистика раздачи
Размер:  15.7 GB   |    Зарегистрирован:  21 день   |    .torrent скачан:  9 раз   |   
Раздают:  1   Качают:  1  
   
Загрузка...
 
Автор Сообщение

Galfimbul

avatar Galfimbul


Новые приключения Винни Пуха
The New Adventures of Winnie the PoohСезон 1Серии: 1-22 из 22
Страна: США
Производство: Disney
Жанр: Мультфильм, фэнтези, комедия, приключения
Продолжительность: 00:22:00
Года выпуска: 1989-1989
Перевод:

Профессиональный (полное дублирование) | студии «Нота», «Кадр» ТПО «Рост» 1992-1993
Профессиональный (полное дублирование) | студия «Невафильм» 2010
Оригинальная звуковая дорожка (English)

Русские субтитры: частично есть
Английские субтитры: частично естьРежиссёр: Теренс Харрисон / Terence HarrisonКто такой Винни Пух, знают все. Этот мультфильм производства компании Уолта Диснея основан на оригинальных иллюстрациях четырехтомного собрания о Винни Пухе Эрнеста Шепарда. Познакомьтесь с Винни Пухом, каким его видят англоязычные ценители и который, конечно, отличается от русской версии Бориса Заходера. Все раздачи мультсериалаКачество: WEB-DL 1080p HDCLUB
Формат: MKV
Видео: 1920x1080 (16:9) at 25.000 fps, High@L4, 2pass, ~4000 kbps avg, ~0.070bpp
Аудио:

Russian: 48 kHz, AC3 Dolby Digital, 2 ch, ~256 kbps | «Нота», «Кадр» ТПО «Рост»
Russian: 44.1 kHz, AAC LC, 2 ch, ~192 kbps | «Невафильм»
English: 44.1 kHz, AAC LC, 2 ch, ~192 kbps

Субтитры: Russian (*.srt), English (*.srt)
GeneralUnique ID : 172662307574393308942646576157419674093 (0x81E58D0402CDED648F80309BCAB499ED)Complete name : \The New Adventures of Winnie the Pooh - Season 1\The.New.Adventures.of.Winnie.the.Pooh.S01E16.1080p.WEB-DL.H.264.AAC2.0.2xDub.Eng.mkvFormat : MatroskaFormat version : Version 4 / Version 2File size : 725 MiBDuration : 21 min 50 sOverall bit rate : 4 643 kb/sMovie name : The Wishing BearEncoded date : UTC 2017-09-30 21:50:30Writing application : mkvmerge v16.0.0 ('Protest') 64-bitWriting library : libebml v1.3.5 + libmatroska v1.4.8Attachments : poster.jpg

VideoID : 1Format : AVCFormat/Info : Advanced Video CodecFormat profile : High@L4Format settings, CABAC : YesFormat settings, ReFrames : 3 framesCodec ID : V_MPEG4/ISO/AVCDuration : 21 min 50 sBit rate : 4 000 kb/sWidth : 1 920 pixelsHeight : 1 080 pixelsDisplay aspect ratio : 16:9Frame rate mode : ConstantFrame rate : 25.000 FPSColor space : YUVChroma subsampling : 4:2:0Bit depth : 8 bitsScan type : ProgressiveBits/(Pixel*Frame) : 0.077Stream size : 624 MiB (86%)Title : The New Adventures of Winnie the Pooh: Season 1Writing library : x264 core 142 r2389 956c8d8Encoding settings : cabac=1 / ref=3 / deblock=1:0:0 / analyse=0x3:0x133 / me=umh / subme=7 / psy=1 / psy_rd=1.00:0.00 / mixed_ref=1 / me_range=32 / chroma_me=1 / trellis=2 / 8x8dct=1 / cqm=0 / deadzone=21,11 / fast_pskip=1 / chroma_qp_offset=-2 / threads=12 / lookahead_threads=2 / sliced_threads=0 / nr=0 / decimate=1 / interlaced=0 / bluray_compat=0 / constrained_intra=0 / bframes=0 / weightp=0 / keyint=75 / keyint_min=26 / scenecut=40 / intra_refresh=0 / rc_lookahead=50 / rc=2pass / mbtree=0 / bitrate=4000 / ratetol=1.0 / qcomp=0.20 / qpmin=10 / qpmax=51 / qpstep=4 / cplxblur=20.0 / qblur=0.5 / vbv_maxrate=5000 / vbv_bufsize=5000 / nal_hrd=none / filler=0 / ip_ratio=1.40 / aq=1:1.00Language : RussianDefault : YesForced : NoColor range : LimitedColor primaries : BT.709Transfer characteristics : BT.709Matrix coefficients : BT.709

Audio #1ID : 2Format : AC-3Format/Info : Audio Coding 3Mode extension : CM (complete main)Format settings, Endianness : BigCodec ID : A_AC3Duration : 21 min 49 sBit rate mode : ConstantBit rate : 256 kb/sChannel(s) : 2 channelsChannel positions : Front: L RSampling rate : 48.0 kHzFrame rate : 31.250 FPS (1536 spf)Bit depth : 16 bitsCompression mode : LossyStream size : 40.0 MiB (6%)Title : Dub «Нота», «Кадр» и ТПО «Рост», 1992Language : RussianDefault : YesForced : No

Audio #2ID : 3Format : AACFormat/Info : Advanced Audio CodecFormat profile : LCCodec ID : A_AACDuration : 21 min 49 sBit rate : 192 kb/sChannel(s) : 2 channelsChannel positions : Front: L RSampling rate : 44.1 kHzFrame rate : 43.066 FPS (1024 spf)Compression mode : LossyStream size : 30.0 MiB (4%)Title : Dub «Невафильм» 2010Language : RussianDefault : NoForced : No

Audio #3ID : 4Format : AACFormat/Info : Advanced Audio CodecFormat profile : LCCodec ID : A_AACDuration : 21 min 49 sBit rate : 192 kb/sChannel(s) : 2 channelsChannel positions : Front: L RSampling rate : 44.1 kHzFrame rate : 43.066 FPS (1024 spf)Compression mode : LossyStream size : 30.0 MiB (4%)Title : OriginalLanguage : EnglishDefault : NoForced : No

Text #1ID : 5Format : UTF-8Codec ID : S_TEXT/UTF8Codec ID/Info : UTF-8 Plain TextDuration : 21 min 3 sBit rate : 103 b/sCount of elements : 331Stream size : 16.0 KiB (0%)Language : RussianDefault : NoForced : No

Text #2ID : 6Format : UTF-8Codec ID : S_TEXT/UTF8Codec ID/Info : UTF-8 Plain TextDuration : 21 min 3 sBit rate : 64 b/sCount of elements : 336Stream size : 10.0 KiB (0%)Language : EnglishDefault : NoForced : No

Menu00:00:00.000 : en:Intro00:01:00.120 : en:The Wishing Bear
(Полноразмерные скриншоты открываются кликом по миниатюре)
№   Оригинальное название                                      студия «Нота», «Кадр» и ТПО «Рост»          студия «Невафильм»

01. Pooh Oughta Be in Pictures                                 Пух снимается в кино                        Винни, звезда экрана
02. Friend, in Deed / Donkey for a Day                         Настоящий друг / День ослика                Друг познаётся в еде / День в ослиной шкуре
03. There's No Camp Like Home / Balloonatics                   В лесу хорошо, а дома лучше / Шаронавтика   В походе хорошо, а дома — лучше / Злоключения воздушного шара
04. Find Her, Keep Her                                         Как спасти найдёныша                        Где найдёшь, где потеряешь
05. The Piglet Who Would Be King                               Как Пятачок был королём                     Из поросёнка — в короли
06. Cleanliness Is Next to Impossible                          Давай начистоту                             Как приятно быть опрятным
07. The Great Honey Pot Robbery                                Великое похищение горшка с мёдом            Мёдограбление века
08. Stripes / Monkey See, Monkey Do Better                     Полоски / Лучший подарок ребёнку            Полоски / Обезьяне равных нет
09. Babysitter Blues                                           Нянькино горе                               Нянин блюз
10. How Much Is That Rabbit in the Window                      Сколько стоит особенный Кролик?             Сколько стоит особенный Кролик?
11. Gone with the Wind / Nothing But the Tooth                 Унесённый ветром / Зубная быль              Унесённый ветром / Зубная быль
12. Paw and Order                                              Закон есть закон                            Закон есть закон
13. Honey for a Bunny / Trap as Trap Can                       Медовый зайчик                              Мёд за Кролика
14. The Masked Offender / Things That Go Piglet in the Night   Всем ловушкам ловушка / Мститель-мучитель   Отследить и отловить / Престрашный мститель
15. Luck Amok / Magic Earmuffs                                 Заразное невезение / Волшебные наушники     Когда от тебя отвернулась удача / Волшебные наушники
16. The Wishing Bear                                           Винни-Пух загадывает желание                Загадай желание
17. King of the Beasties / The Rats Who Came to Dinner         Царь зверей / Крысы пришли поужинать        Король зверей / Незваные гости
18. My Hero / Owl Feathers                                     Мой герой / Совиные перья                   Мой герой / Перья Филина
19. A Very, Very Large Animal / Fish Out of Water              Очень-очень крупный зверь / Рыба на суше    Большущий-пребольшущий зверь / Как рыба из воды
20. Tigger's Shoes / Lights Out                                Волшебные кроссовки / Во тьме               Тигрулина обувка / Тушите свет
21. The 'New' Eeyore / Tigger, Private Ear                     Новый Иа / Тигра-детектив                   Новый Ушастик / Тигруля, частный детектив
22. Party Poohper / The Old SwitcheRoo                         Праздник по графику / Удачная замена        Праздник — дело серьёзное / Подмена


Трекер:  [ 01-Окт-2017 01:54 ]

  

Скачать .torrent

Размер .torrent файла 42 KB


Размер: 15.7 GB
Хэш (hash) релиза: 825a5478af9e5f72886b1e68197e0da88ea0c329
Подписка на обновления:

Еще никто не оставлял запись к записи скачать торрент Новые приключения Винни Пуха The New Adventures of Winnie the Pooh . Будь первым!

!Обратная связь