Скачать через торрент Стражи галактики Marvels Guardians of the Galaxy Фильм бесплатно в хорошем качестве torrent

Скачивайте на UnionPeer.org фильмы через торрент без регистрации. Новинки кино в хорошем качестве через торрент. На UnionPeer.org можно скачать через торрент фильмы 2014 и 2015 годов. Самые новые фильмы.

Скачать торрент Стражи галактики Marvels Guardians of the Galaxy бесплатно через .torrent фильм мультфильм сериал

Если у вас наблюдаются проблемы со скриншотами, переходом по ссылками, скачиванием торрентов - проблемы в блокировщике рекламы AdBlock. #хорошегоДня!


Статистика раздачи
Размер:  14.19 GB   |    Зарегистрирован:  22 дня   |    .torrent скачан:  11 раз   |   
Раздают:  1  
   
Загрузка...
 
Автор Сообщение

Galfimbul

avatar Galfimbul


Стражи галактики
Marvel's Guardians of the Galaxy
Год выпуска: 2017
Страна: США
Жанр: мультсериал, фантастика, боевик, приключения
Продолжительность: ~00:22:00
Перевод: Любительский (Многоголосый закадровый) - Hamsterstudio
русские субтитры: нетРежиссёр: Эрик Радомски : Eric Radomski, Лео Райли : Leo RileyРоли озвучивали: Уилл Фридел, Тревор Дивэлл, Кевин Майкл Ричардсон, Ванесса Маршалл, Дэвид Соболев, Джеймс Арнольд Тейлор, Айзек С. Синглтон мл., Кри Саммер, Джонатан Адамс, Джонатан ФрейксОписание: Прежде чем стать Стражами, каждому из них пришлось преодолеть немало трудностей на своём пути… релиз: - За WEB-DL большое спасибо SergeZuich и Panas
- Работа с WEB-DL'ом и звуком -Azureus-Качество: WEB-DL 720p
Формат: MKV
Видео кодек: AVC
Аудио кодек: AC3
Видео: 1280x720, 23,976 fps, ~3997 kbps avg, 0.181 bit/pixel
Аудио #1: [RUS] 48 kHz, AC3 Dolby Digital, 2/0 (L,R) ch, ~192 kbps
Аудио #2: [ENG] 48 kHz, AC3 Dolby Digital, 3/2 (L,C,R,l,r) + LFE ch, ~384 kbps
субтитры: английские
00. Pick up the Pieces
01. Stayin' Alive
02. Evolution Rock
03. Lyin Eyes
04. Free Bird
05. Girls Just Wanna Have Fun
06. Black Helmet Woman
07. Right Place Wrong Time
08. Me and You and a Dog Named Cosmo
09. Cant Get You out of My Head
10. Rock Your Baby
11. Symbiote War Part 1.Wild World
12. Symbiote War Part 2.I Will Survive
13. Symbiote War Part 3.Thunder Road
14. Back in Black
15. Knights in Black Helmets
16. Nova Me Nova You
17. Mr Roboto
18. Destroyer
19. You Cant Always Get What You Want
Общее
Уникальный идентификатор : 252455193040019139568408723789406596536 (0xBDED1A01BFABE17A89F0CC71B094EDB8)
Полное имя : D:\short\Guardians of the Galaxy.s02.2015.WEB-DL 720p -Azureus-\Guardians of the Galaxy.s02.e01.Stayin' Alive.WEB-DL 720p.mkv
Формат : Matroska
Версия формата : Version 4 / Version 2
Размер файла : 724 Мбайт
Продолжительность : 22 м.
Общий поток : 4575 Кбит/сек
Дата кодирования : UTC 2017-03-17 08:37:50
Программа кодирования : mkvmerge v9.4.0 ('Knurl') 64bit
Библиотека кодирования : libebml v1.3.4 + libmatroska v1.4.5

Видео
Идентификатор : 1
Формат : AVC
Формат/Информация : Advanced Video Codec
Профиль формата : High@L3.1
Параметр CABAC формата : Нет
Параметр ReFrames формата : 2 кадра
Идентификатор кодека : V_MPEG4/ISO/AVC
Продолжительность : 22 м.
Битрейт : 3997 Кбит/сек
Ширина : 1280 пикселей
Высота : 720 пикселей
Соотношение сторон : 16:9
Режим частоты кадров : Постоянный
Частота кадров : 23,976 (24000/1001) кадра/сек
Цветовое пространство : YUV
Субдискретизация насыщенности : 4:2:0
Битовая глубина : 8 бит
Тип развёртки : Прогрессивная
Бит/(Пиксели*Кадры) : 0.181
Размер потока : 632 Мбайт (87%)
Язык : English
Default : Да
Forced : Нет
Цветовой диапазон : Limited
Основные цвета : BT.709
Характеристики трансфера : BT.709
Коэффициенты матрицы : BT.709

Аудио #1
Идентификатор : 2
Формат : AC-3
Формат/Информация : Audio Coding 3
Расширение режима : CM (complete main)
Параметр Endianness формата : Big
Идентификатор кодека : A_AC3
Продолжительность : 22 м.
Вид битрейта : Постоянный
Битрейт : 192 Кбит/сек
Каналы : 2 канала
Расположение каналов : Front: L R
Частота : 48,0 КГц
Частота кадров : 31,250 кадров/сек (1536 spf)
Метод сжатия : С потерями
Размер потока : 30,4 Мбайт (4%)
Заголовок : MVO - Hamsterstudio
Язык : Russian
Default : Да
Forced : Нет

Аудио #2
Идентификатор : 3
Формат : AC-3
Формат/Информация : Audio Coding 3
Расширение режима : CM (complete main)
Параметр Endianness формата : Big
Идентификатор кодека : A_AC3
Продолжительность : 22 м.
Вид битрейта : Постоянный
Битрейт : 384 Кбит/сек
Каналы : 6 каналов
Расположение каналов : Front: L C R, Side: L R, LFE
Частота : 48,0 КГц
Частота кадров : 31,250 кадров/сек (1536 spf)
Метод сжатия : С потерями
Размер потока : 60,8 Мбайт (8%)
Заголовок : ENG
Язык : English
Default : Нет
Forced : Нет

Текст
Идентификатор : 4
Формат : UTF-8
Идентификатор кодека : S_TEXT/UTF8
Идентификатор кодека/Информация : UTF-8 Plain Text
Продолжительность : 21 м.
Битрейт : 83 бит/сек
Count of elements : 391
Размер потока : 13,2 Кбайт (0%)
Заголовок : Eng Sub
Язык : English
Default : Нет
Forced : Нет
Внимание, это обновляемая раздача!!!
Всем скачавшим и поддерживающим раздачу - обновляйте скачанный релиз после каждого дополнения.
Вам нужно скачать обновленный торрент еще раз, вновь запустить его и сохранить обновленный релиз поверх старого, т.е. в ту же папку.


Трекер:  [ 30-Сен-2017 16:54 ]

  

Скачать .torrent

Размер .torrent файла 38 KB


Размер: 14.19 GB
Хэш (hash) релиза: 6647323f7a0ad8f1aa248fcd368c8b3b5aad76c3
Подписка на обновления:

Еще никто не оставлял запись к записи скачать торрент Стражи галактики Marvels Guardians of the Galaxy . Будь первым!

!Обратная связь