Скачать через торрент музыку Состояние исступления State Of Grace бесплатно без регистрации torrent

Если у вас наблюдаются проблемы со скриншотами, переходом по ссылками, скачиванием торрентов - проблемы в блокировщике рекламы AdBlock. #хорошегоДня!


Статистика раздачи
Размер:  624 MB   |    Зарегистрирован:  19 дней   |    .torrent скачан:  4 раза   |   
Раздают:  1  
   
Загрузка...
 
Автор Сообщение

Galfimbul

avatar Galfimbul


Состояние исступления / State Of Grace

Жанр: Score
Композитор: Ennio Morricone
Год выпуска диска: 2017
Год выпуска фильма: 1990
Производитель диска: Spain
Издатель (лейбл): Quartet Records
Номер по каталогу: QR282

Аудиокодек: FLAC (*.flac)
Тип рипа: image+.cue
Битрейт аудио: lossless
Продолжительность: 70:05; 53:11
Источник: собственный рип
Наличие сканов в содержимом раздачи: да (600 dpi)

Треклист
01. Hell's Kitchen [03:14.66]
02. The Meet [01:51.32]
03. Bronx Drug Deal [01:37.53]
04. The Kitchen (Film Version) [00:54.04]
05. Be Up To The Angels [01:28.13]
06. New Jersey [00:45.57]
07. Under The Westside Highway [00:59.54]
08. Hundred Yard Dash [01:23.68]
09. The First Date [01:17.00]
10. Park Ave. [02:05.40]
11. Bushmills [01:12.58]
12. Terry And Kate [03:22.52]
13. The Social Club [01:51.57]
14. Back Alley [01:27.07]
15. Cop Funeral [00:52.64]
16. Make Stevie A Saint [01:13.54]
17. Judas Cop [02:35.01]
18. Finn [01:30.17]
19. Murder In Matty's Bar [02:25.70]
20. I Thought You Were Different [01:22.47]
21. Jackie's Revenge [00:55.07]
22. The Backroom [01:36.51]
23. We're In The Middle Of This Thing [01:06.52]
24. Mott Street [05:47.73]
25. The Confrontation [04:05.03]
26. Jackie's Death [03:24.16]
27. Pier 84 [02:24.47]
28. Here's How Smart You Are [00:37.64]
29. State Of Grace [02:39.02]
30. Bring Me His Rat Head [01:25.27]
31. The Shootout [05:56.21]
32. St. Patrick's Day [04:03.08]
33. Terry Noonan [02:30.15]
<div class="sp-wrap">
<div class="sp-head folded">Отчёт EAC</div>
<div class="sp-body">

Exact Audio Copy V1.3 from 2. September 2016

EAC extraction logfile from 12. August 2017, 21:04

Ennio Morricone / State Of Grace (Disc 1)

Used drive : TSSTcorpCDDVDW SH-S202H Adapter: 1 ID: 0

Read mode : SecureUtilize accurate stream : YesDefeat audio cache : YesMake use of C2 pointers : No

Read offset correction : 6Overread into Lead-In and Lead-Out : NoFill up missing offset samples with silence : YesDelete leading and trailing silent blocks : NoNull samples used in CRC calculations : YesUsed interface : Native Win32 interface for Win NT & 2000

Used output format : Internal WAV RoutinesSample format : 44.100 Hz; 16 Bit; Stereo

TOC of the extracted CD

Track | Start | Length | Start sector | End sector --------------------------------------------------------- 1 | 0:00.00 | 3:14.66 | 0 | 14615 2 | 3:14.66 | 1:51.32 | 14616 | 22972 3 | 5:06.23 | 1:37.53 | 22973 | 30300 4 | 6:44.01 | 0:54.04 | 30301 | 34354 5 | 7:38.05 | 1:28.13 | 34355 | 40967 6 | 9:06.18 | 0:45.57 | 40968 | 44399 7 | 9:52.00 | 0:59.54 | 44400 | 48878 8 | 10:51.54 | 1:23.68 | 48879 | 55171 9 | 12:15.47 | 1:17.00 | 55172 | 60946 10 | 13:32.47 | 2:05.40 | 60947 | 70361 11 | 15:38.12 | 1:12.58 | 70362 | 75819 12 | 16:50.70 | 3:22.52 | 75820 | 91021 13 | 20:13.47 | 1:51.57 | 91022 | 99403 14 | 22:05.29 | 1:27.07 | 99404 | 105935 15 | 23:32.36 | 0:52.64 | 105936 | 109899 16 | 24:25.25 | 1:13.54 | 109900 | 115428 17 | 25:39.04 | 2:35.01 | 115429 | 127054 18 | 28:14.05 | 1:30.17 | 127055 | 133821 19 | 29:44.22 | 2:25.70 | 133822 | 144766 20 | 32:10.17 | 1:22.47 | 144767 | 150963 21 | 33:32.64 | 0:55.07 | 150964 | 155095 22 | 34:27.71 | 1:36.51 | 155096 | 162346 23 | 36:04.47 | 1:06.52 | 162347 | 167348 24 | 37:11.24 | 5:47.73 | 167349 | 193446 25 | 42:59.22 | 4:05.03 | 193447 | 211824 26 | 47:04.25 | 3:24.16 | 211825 | 227140 27 | 50:28.41 | 2:24.47 | 227141 | 237987 28 | 52:53.13 | 0:37.64 | 237988 | 240826 29 | 53:31.02 | 2:39.02 | 240827 | 252753 30 | 56:10.04 | 1:25.27 | 252754 | 259155 31 | 57:35.31 | 5:56.21 | 259156 | 285876 32 | 63:31.52 | 4:03.08 | 285877 | 304109 33 | 67:34.60 | 2:30.15 | 304110 | 315374

Range status and errors

Selected range

Filename D:\Ennio Morricone - State Of Grace\Ennio Morricone - State Of Grace (Disc 1).wav

Peak level 94.6 % Extraction speed 8.0 X Range quality 100.0 % Test CRC F48EFC60 Copy CRC F48EFC60 Copy OK

No errors occurred

AccurateRip summary

Track 1 accurately ripped (confidence 3) [8FC25D5A] (AR v2)Track 2 accurately ripped (confidence 3) [C582575F] (AR v2)Track 3 accurately ripped (confidence 3) [773D7BDE] (AR v2)Track 4 accurately ripped (confidence 3) [40988FAD] (AR v2)Track 5 accurately ripped (confidence 3) [B1A5AE7A] (AR v2)Track 6 accurately ripped (confidence 3) [37D7A2AB] (AR v2)Track 7 accurately ripped (confidence 3) [A36DDB29] (AR v2)Track 8 accurately ripped (confidence 3) [15FB436C] (AR v2)Track 9 accurately ripped (confidence 3) [DD95D55D] (AR v2)Track 10 accurately ripped (confidence 3) [A7321768] (AR v2)Track 11 accurately ripped (confidence 3) [0A24B518] (AR v2)Track 12 accurately ripped (confidence 3) [78882379] (AR v2)Track 13 accurately ripped (confidence 3) [779C001F] (AR v2)Track 14 accurately ripped (confidence 3) [BC442A3B] (AR v2)Track 15 accurately ripped (confidence 3) [B43A9DFD] (AR v2)Track 16 accurately ripped (confidence 3) [5CEE3BD2] (AR v2)Track 17 accurately ripped (confidence 3) [880F60AA] (AR v2)Track 18 accurately ripped (confidence 3) [A21F1C6E] (AR v2)Track 19 accurately ripped (confidence 3) [2630F013] (AR v2)Track 20 accurately ripped (confidence 3) [E813BD4C] (AR v2)Track 21 accurately ripped (confidence 3) [BB36E802] (AR v2)Track 22 accurately ripped (confidence 3) [56D69F8E] (AR v2)Track 23 accurately ripped (confidence 3) [340A39C2] (AR v2)Track 24 accurately ripped (confidence 3) [CDA474F6] (AR v2)Track 25 accurately ripped (confidence 3) [75BF2920] (AR v2)Track 26 accurately ripped (confidence 3) [AC5B2790] (AR v2)Track 27 accurately ripped (confidence 3) [230AF089] (AR v2)Track 28 accurately ripped (confidence 3) [C0C671A8] (AR v2)Track 29 accurately ripped (confidence 3) [24AD3050] (AR v2)Track 30 accurately ripped (confidence 3) [EE8F3C38] (AR v2)Track 31 accurately ripped (confidence 3) [1860E140] (AR v2)Track 32 accurately ripped (confidence 3) [EA5BD412] (AR v2)Track 33 accurately ripped (confidence 3) [E3218324] (AR v2)

All tracks accurately ripped

End of status report

==== Log checksum FF84A89734B137BD230FCB31122E6E02B526AEC1F2150D17090D2A24878FFDF6 ====
</div>
</div>
01. Hell's Kitchen [03:06.13]
02. Park Ave. [02:05.67]
03. The Shootout [05:55.74]
04. Hundred Yard Dash [01:23.34]
05. State Of Grace [02:39.65]
06. New Jersey [00:45.62]
07. Mott Street [05:04.63]
08. The Confrontation [03:40.18]
09. Finn [01:28.68]
10. Terry Noonan [02:29.37]
11. St. Patrick's Day [04:02.55]
12. The Backroom [01:37.18]
13. Jackie's Death [03:25.02]
14. Terry & Kate [03:22.50]
15. The Kitchen [06:42.05]
16. Bronx Drug Deal [01:39.13]
17. Murder In Matty's Bar [02:25.16]
18. The First Date [01:16.15]
<div class="sp-wrap">
<div class="sp-head folded">Отчёт EAC</div>
<div class="sp-body">

Exact Audio Copy V1.3 from 2. September 2016

EAC extraction logfile from 12. August 2017, 21:20

Ennio Morricone / State Of Grace (Disc 2)

Used drive : TSSTcorpCDDVDW SH-S202H Adapter: 1 ID: 0

Read mode : SecureUtilize accurate stream : YesDefeat audio cache : YesMake use of C2 pointers : No

Read offset correction : 6Overread into Lead-In and Lead-Out : NoFill up missing offset samples with silence : YesDelete leading and trailing silent blocks : NoNull samples used in CRC calculations : YesUsed interface : Native Win32 interface for Win NT & 2000

Used output format : Internal WAV RoutinesSample format : 44.100 Hz; 16 Bit; Stereo

TOC of the extracted CD

Track | Start | Length | Start sector | End sector --------------------------------------------------------- 1 | 0:00.00 | 3:06.13 | 0 | 13962 2 | 3:06.13 | 2:05.67 | 13963 | 23404 3 | 5:12.05 | 5:55.74 | 23405 | 50103 4 | 11:08.04 | 1:23.34 | 50104 | 56362 5 | 12:31.38 | 2:39.65 | 56363 | 68352 6 | 15:11.28 | 0:45.62 | 68353 | 71789 7 | 15:57.15 | 5:04.63 | 71790 | 94652 8 | 21:02.03 | 3:40.18 | 94653 | 111170 9 | 24:42.21 | 1:28.68 | 111171 | 117838 10 | 26:11.14 | 2:29.37 | 117839 | 129050 11 | 28:40.51 | 4:02.55 | 129051 | 147255 12 | 32:43.31 | 1:37.18 | 147256 | 154548 13 | 34:20.49 | 3:25.02 | 154549 | 169925 14 | 37:45.51 | 3:22.50 | 169926 | 185125 15 | 41:08.26 | 6:42.05 | 185126 | 215280 16 | 47:50.31 | 1:39.13 | 215281 | 222718 17 | 49:29.44 | 2:25.16 | 222719 | 233609 18 | 51:54.60 | 1:16.15 | 233610 | 239324

Range status and errors

Selected range

Filename D:\Ennio Morricone - State Of Grace\Ennio Morricone - State Of Grace (Disc 2).wav

Peak level 95.4 % Extraction speed 7.2 X Range quality 100.0 % Test CRC 3BEC8EDC Copy CRC 3BEC8EDC Copy OK

No errors occurred

AccurateRip summary

Track 1 accurately ripped (confidence 3) [1F666A07] (AR v2)Track 2 accurately ripped (confidence 3) [C9A4784B] (AR v2)Track 3 accurately ripped (confidence 3) [F75463A4] (AR v2)Track 4 accurately ripped (confidence 3) [8424A9CA] (AR v2)Track 5 accurately ripped (confidence 3) [61CD8D86] (AR v2)Track 6 accurately ripped (confidence 3) [E62F4F29] (AR v2)Track 7 accurately ripped (confidence 3) [FEB485AA] (AR v2)Track 8 accurately ripped (confidence 3) [4A1C8D59] (AR v2)Track 9 accurately ripped (confidence 3) [5767F702] (AR v2)Track 10 accurately ripped (confidence 3) [68A000DA] (AR v2)Track 11 accurately ripped (confidence 3) [491BB838] (AR v2)Track 12 accurately ripped (confidence 3) [1FD6617B] (AR v2)Track 13 accurately ripped (confidence 3) [084956C8] (AR v2)Track 14 accurately ripped (confidence 3) [051556CB] (AR v2)Track 15 accurately ripped (confidence 3) [46DAFD45] (AR v2)Track 16 accurately ripped (confidence 3) [60561095] (AR v2)Track 17 accurately ripped (confidence 3) [76AC1531] (AR v2)Track 18 accurately ripped (confidence 3) [6091489C] (AR v2)

All tracks accurately ripped

End of status report

==== Log checksum 19A22F8B2C4150DC78143A96CB671B0EC4A814127482ACF5880223ABB9AE572A ====
</div>
</div>
Премьера полной версии музыки легендарного Эннио Морриконе к криминальной драме Состояние исступления.
Нас ждет почти 20 минут новой музыки от Маэстро, в стиле его "гангстерских" картин 80-х, а также ремастированная версия оригинального альбома 1990 года.


Трекер:  [ 30-Сен-2017 12:06 ]

  

Скачать .torrent

Размер .torrent файла 13 KB


Размер: 624 MB
Хэш (hash) релиза: ec6cdac435ad6a2bfd3f10980abf9d49fa7b0b30

Торренты, похожие на Состояние исступления State Of Grace скачать торрент

Форум Название Автор Размер S L Добавлен
Саундтреки к фильмам и мультфильмам (mp3) ·· (Score) Состояние исступления / State Of Grace (by Ennio Morricone) - 2017 (1990), MP3, 320 kbps Galfimbul 296051799282 MB 0 0 1506763369

12:22

30-Сен-17

Еще никто не оставлял запись к записи скачать торрент Состояние исступления State Of Grace . Будь первым!

!Обратная связь