Скачать через торрент музыку Мотылек Papillon бесплатно без регистрации torrent

Если у вас наблюдаются проблемы со скриншотами, переходом по ссылками, скачиванием торрентов - проблемы в блокировщике рекламы AdBlock. #хорошегоДня!


Статистика раздачи
Размер:  445 MB   |    Зарегистрирован:  19 дней   |    .torrent скачан:  9 раз   |   
Раздают:  1  
   
Загрузка...
 
Автор Сообщение

Galfimbul

avatar Galfimbul


Мотылек / Papillon

Жанр: Score
Композитор: Jerry Goldsmith
Год выпуска диска: 2017
Год выпуска фильма: 1973
Производитель диска: Spain
Издатель (лейбл): Quartet Records
Номер по каталогу: QR266

Аудиокодек: FLAC (*.flac)
Тип рипа: image+.cue
Битрейт аудио: lossless
Продолжительность: 71:29
Источник: собственный рип
Наличие сканов в содержимом раздачи: да (600 dpi)
01. Theme From Papillon [02:22.11]
02. The Camp [03:03.48]
03. Catching Butterflies (Extended Version) [02:57.28]
04. The Dream [01:50.36]
05. Hospital [03:52.33]
06. Papillon (Theme Variation) [01:50.42]
07. Freedom [04:00.45]
08. New Friend [02:09.01]
09. Antonio's Death [02:32.08]
10. Gift From The Sea (Film Version) [08:18.19]
11. The Pearl [01:04.57]
12. Reunion [04:39.25]
13. The Garden [00:52.47]
14. Cruel Sea [01:31.62]
15. Farewell - Part 1 [01:00.17]
16. Farewell - Part 2 [02:25.26]
17. End Title [02:50.74]

Bonus Tracks
18. Field Drums [00:45.52]
19. Triumphant Parade [01:50.21]
20. Faust: Dance Of The Nubian Slaves [02:49.63] composed by C. Gounod
21. Faust: Cleopatra's Variations [02:12.74] composed by C. Gounod
22. Faust: Phryne's Dance [02:14.28] composed by C. Gounod
23. J'ai Deux Amours [01:54.00] composed by Vincent Scotto, Geo Koger & Henri Varna
24. Sous Les Troits De Paris [03:17.50] composed by Raoul Moretti & Rene Nazelles
25. The Dream (Alternate) [01:44.52]
26. Freedom (Alternate) [04:06.57]
27. Free As The Wind [03:10.74] performed by Engelbert Humperdinck
Exact Audio Copy V1.3 from 2. September 2016

EAC extraction logfile from 18. July 2017, 17:55

Jerry Goldsmith / Papillon

Used drive : TSSTcorpCDDVDW SH-S202H Adapter: 1 ID: 0

Read mode : SecureUtilize accurate stream : YesDefeat audio cache : YesMake use of C2 pointers : No

Read offset correction : 6Overread into Lead-In and Lead-Out : NoFill up missing offset samples with silence : YesDelete leading and trailing silent blocks : NoNull samples used in CRC calculations : YesUsed interface : Native Win32 interface for Win NT & 2000

Used output format : Internal WAV RoutinesSample format : 44.100 Hz; 16 Bit; Stereo

TOC of the extracted CD

Track | Start | Length | Start sector | End sector --------------------------------------------------------- 1 | 0:00.00 | 2:22.11 | 0 | 10660 2 | 2:22.11 | 3:03.48 | 10661 | 24433 3 | 5:25.59 | 2:57.28 | 24434 | 37736 4 | 8:23.12 | 1:50.36 | 37737 | 46022 5 | 10:13.48 | 3:52.33 | 46023 | 63455 6 | 14:06.06 | 1:50.42 | 63456 | 71747 7 | 15:56.48 | 4:00.45 | 71748 | 89792 8 | 19:57.18 | 2:09.01 | 89793 | 99468 9 | 22:06.19 | 2:32.08 | 99469 | 110876 10 | 24:38.27 | 8:18.19 | 110877 | 148245 11 | 32:56.46 | 1:04.57 | 148246 | 153102 12 | 34:01.28 | 4:39.25 | 153103 | 174052 13 | 38:40.53 | 0:52.47 | 174053 | 177999 14 | 39:33.25 | 1:31.62 | 178000 | 184886 15 | 41:05.12 | 1:00.17 | 184887 | 189403 16 | 42:05.29 | 2:25.26 | 189404 | 200304 17 | 44:30.55 | 2:50.74 | 200305 | 213128 18 | 47:21.54 | 0:45.52 | 213129 | 216555 19 | 48:07.31 | 1:50.21 | 216556 | 224826 20 | 49:57.52 | 2:49.63 | 224827 | 237564 21 | 52:47.40 | 2:12.74 | 237565 | 247538 22 | 55:00.39 | 2:14.28 | 247539 | 257616 23 | 57:14.67 | 1:54.00 | 257617 | 266166 24 | 59:08.67 | 3:17.50 | 266167 | 280991 25 | 62:26.42 | 1:44.52 | 280992 | 288843 26 | 64:11.19 | 4:06.57 | 288844 | 307350 27 | 68:18.01 | 3:10.74 | 307351 | 321674

Range status and errors

Selected range

Filename D:\Jerry Goldsmith - Papillon\Jerry Goldsmith - Papillon.wav

Peak level 98.8 % Extraction speed 8.2 X Range quality 100.0 % Test CRC F4684389 Copy CRC F4684389 Copy OK

No errors occurred

AccurateRip summary

Track 1 accurately ripped (confidence 3) [B7A3C2C2] (AR v2)Track 2 accurately ripped (confidence 3) [BAAB29AC] (AR v2)Track 3 accurately ripped (confidence 3) [FEA58DC6] (AR v2)Track 4 accurately ripped (confidence 3) [62A8F216] (AR v2)Track 5 accurately ripped (confidence 3) [D8D326F1] (AR v2)Track 6 accurately ripped (confidence 3) [E133E96D] (AR v2)Track 7 accurately ripped (confidence 3) [62CDB054] (AR v2)Track 8 accurately ripped (confidence 3) [18D16CDE] (AR v2)Track 9 accurately ripped (confidence 3) [8EFFCC5A] (AR v2)Track 10 accurately ripped (confidence 3) [AF78FEAF] (AR v2)Track 11 accurately ripped (confidence 3) [A59AB1AB] (AR v2)Track 12 accurately ripped (confidence 3) [0B34E7EB] (AR v2)Track 13 accurately ripped (confidence 3) [7FC6197C] (AR v2)Track 14 accurately ripped (confidence 3) [A8194BEA] (AR v2)Track 15 accurately ripped (confidence 3) [CC81D9D8] (AR v2)Track 16 accurately ripped (confidence 3) [E04FB5CD] (AR v2)Track 17 accurately ripped (confidence 3) [C21BC1E4] (AR v2)Track 18 accurately ripped (confidence 3) [4E356B90] (AR v2)Track 19 accurately ripped (confidence 3) [C38AF542] (AR v2)Track 20 accurately ripped (confidence 3) [E8496303] (AR v2)Track 21 accurately ripped (confidence 3) [FB3E9E97] (AR v2)Track 22 accurately ripped (confidence 3) [3D2EE835] (AR v2)Track 23 accurately ripped (confidence 3) [A53C3E62] (AR v2)Track 24 accurately ripped (confidence 3) [CE8F17E3] (AR v2)Track 25 accurately ripped (confidence 3) [EBFAB65C] (AR v2)Track 26 accurately ripped (confidence 3) [B32C4E93] (AR v2)Track 27 accurately ripped (confidence 3) [8B00CB16] (AR v2)

All tracks accurately ripped

End of status report

==== Log checksum 0E71D74BAE3A0B6A7913C6289B3C79620BF52E76EA1DAC72D2D94D177C030462 ====
Представляем премьеру полной версии музыки легендарного Джерри Голдсмита к не менее легендарному фильму - Мотылек.
Все ранее издававшиеся издания имели хоть какой-то, да недостаток - сперва был переиздан альбомный вариант (без каких-либо бонусных треков).
Спустя почти 20 лет во Франции была выпущена чуть более лучшая версия - с новыми треками. Однако в тот момент оригинальные сессионные пленки не были еще обнаружены, и французы смогли представить музыку в том виде, как она звучит в фильме, но не как она была записана. Т.е. если в оригинале композитор записал, например, почти 3 минуты для сцены Catching Butterflies, а в фильме музыку обрезали до полутора минут, то и в предыдущем издании звучало лишь полторы минуты музыки. Теперь же, благодаря обнаружению оригинальных 8-и канальных пленок, можно послушать всю музыку именно так, как задумывал ее композитор, без последующих правок.


Трекер:  [ 30-Сен-2017 11:36 ]

  

Скачать .torrent

Размер .torrent файла 18 KB


Размер: 445 MB
Хэш (hash) релиза: 3d9c03c262db9d896deed48662265f4ac06e4997

Торренты, похожие на Мотылек Papillon скачать торрент

Форум Название Автор Размер S L Добавлен
Саундтреки к фильмам и мультфильмам (mp3) ·· (Score) Мотылек / Papillon (by Jerry Goldsmith) - 2017 (1973), MP3, 320 kbps Galfimbul 171738511164 MB 0 0 1506761077

11:44

30-Сен-17

Саундтреки к фильмам и мультфильмам (mp3) ·· (Score) Мотылек / Papillon (Jerry Goldsmith) - 1988 (1973), MP3, 320 kbps Galfimbul 9336503289 MB 0 0 1464358555

17:15

27-Май-16

Саундтреки к фильмам и мультфильмам (mp3) ·· (Soundtrack) Мотылек / Papillon - 1973, MP3, 168 kbps Galfimbul 4566334644 MB 0 0 1460523948

08:05

13-Апр-16

Еще никто не оставлял запись к записи скачать торрент Мотылек Papillon . Будь первым!

!Обратная связь