Скачать через торрент Рэдволл Redwall Фильм бесплатно в хорошем качестве torrent

Скачивайте на UnionPeer.org фильмы через торрент без регистрации. Новинки кино в хорошем качестве через торрент. На UnionPeer.org можно скачать через торрент фильмы 2014 и 2015 годов. Самые новые фильмы.

Скачать торрент Рэдволл Redwall бесплатно через .torrent фильм мультфильм сериал

Если у вас наблюдаются проблемы со скриншотами, переходом по ссылками, скачиванием торрентов - проблемы в блокировщике рекламы AdBlock. #хорошегоДня!


Статистика раздачи
Размер:  30.36 GB   |    Зарегистрирован:  23 дня   |    .torrent скачан:  10 раз   |   
Раздают:  1  
   
Загрузка...
 
Автор Сообщение

Galfimbul

avatar Galfimbul


Рэдволл / RedwallThe Complete Series
Английское название: Redwall
Русское название: Рэдволл
Год выпуска: 1999-2001
Страна: Канада, Франция, Германия
Жанр: Приключения, фэнтези.
Продолжительность: ТВ (39 эп.), ~ 23 минуты
Перевод: Профессиональный (Полное Дублирование) "СВ-Кадр" по заказу ТНТ
Перевод: Профессиональный (Полное Дублирование) "Пилот" по заказу Nox Kids
Русские субтитры: Нет
Английские субтитры: НетРежиссёр: Рэймонд Джэфелис, Паскаль Пинон / Raymond Jafelice, Pascal Pinon

Описание: Мир и покой аббатства Рэдволл, которое служит пристанищем для умных мышей и выдр, нарушен армией жестоких крыс, стремящихся завоевать и уничтожить его миролюбивых обитателей. Кто станет героем в таких суровых условиях? Тот, кто на героя совсем не похож: мышонок-сирота Матиас, который с помощью прекрасной и храброй мышки, поведет войска в атаку против крыс.Релиз от: Над релизом работали:
Выражаю огромнейшую благодарность следующим лицам:
amber666 - Предоставил оцифровки дубляжа ТНТ
U5Mac - Предоставил DVD9 с мультсериалом
Рауко - Предоставил DVD R5 с мультсериалом
Hanway - Работа со звуком
ALEKS KV - Работа со звуком, сведение, запись с каналов "Россия" и "Спорт" в 2007 году, итоговый муксинг.Сэмпл
<div class="sp-wrap">
<div class="sp-head folded">Дубляж "СВ-Кадр" по заказу ТНТ</div>
<div class="sp-body">Светлана Харлап: Матаяс [01-13 Серии], Маттимео [14-17 Серии]
Надежда Подъяпольская: Маттимео [18-26 Серии]
Борис Быстров: Аббад Мортимер, Железный Клюв, второстепенные, титры
Никита Прозоровский: Бэйзил Длинноух, Мафусаил, Слэйгар, второстепенные

Так же в дубляже принимали участие: Андрей Бархударов, Сергей Быстрицкий, Всеволод Кузнецов, Галина Исхакова и Елена Борзунова.
Максим Кондратюк: Матиас, Мартин
Татьяна Зиновенко: Василика, титры [01-07, 09-39 серии Серии], Констанция, Роза
Анатолий Зиновенко: Бэйзил Олень, Мафусаил [01-07, 09-39 серии Серии]
Валерий Легин: Аббад Мортимер
Борис Георгиевский: Клуни, Слагар, Бэдранг.
</div>
</div>
Доп. Информация:
Я не мог пройти мимо этого мультсериала, ибо он один из самых любимых!
За основу видео взяты DVD9 R1, как самые лучшие по качеству видео!Дорожки ТНТ взяты с VHS оцифровок. В некоторых сериях был очень сильный фоновый шум в нижних и средних частотах, и к сожалению, убрать его без заметных последствий - невозможно, потому оставил как есть. На ТНТ показывали 25 кадровую версию сжатую с сохранением тона, однако удалось вернуть всё обратно более-менее без последствий. Заставка и финальные титры пофразово восстановлены. Третий сезон на ТНТ никогда не показывали.Дорожки Пилота взяты с официальных DVD5. Наши издатели очень сильно попортили дорожки.
1) Раздули до 5.1. В раздаче всё собрано в 2.0.
2) В 3 сезоне дорожки сжимали в 25 кадров сохраняя тон одним из худших алгоритмов. Обратно растянуть без последствий не удалось.
3) Оцифровку исходных бетакамин производили крайне бездарно. Много где были пропущены фрагменты звука, где-то глюки, а где-то каналы гуляли по громкости. Устранил все эти проблемы, где заметил. Многие пропуски удалось залатать оригиналом.
Так же в самую первую серию вернул дикторский голос в начало заставки, как было при первых показах.
Качество: DVDRemux
Формат видео: MPEG-2
Контейнер: MKV
Аудио кодек: AC3
Видео: MPEG-2 8bit 720x480 (4:3) 29.970fps 5 300Kbps
Аудио:

русская: Dolby AC3 48000Hz ---|DualMono|--- 192Kbps [ТНТ] (Серии 01-26)
русская: Dolby AC3 48000Hz -----|Stereo|----- 192Kbps [Пилот] (Серии 01-39) {Серия 24 - DualMono}
английская: Dolby AC3 48000Hz ---|Stereo|--- 256Kbps [Оригинал] (Серии 01-39)
Сезон 1
01. Коварный Клуни - Часть 1 / Клуни Хлыст - Часть 1
02. Коварный Клуни - Часть 2 / Клуни Хлыст - Часть 2
03. Предательство / Предательство
04. Королевство Спарры / Царство Большого Спарра
05. Клоунада Клуни / Клоуны Клуни Хлыста
06. Боевой дух / Достойный пример
07. Капитан Сноу / Капитан Снег
08. Боевые планы / Тактика боя
09. Незваные гости / Гость
10. Услуга за услугу / Долг платежом красен
11. Асмодеус / Асмодей
12. Под землёй / Подземелье
13. Решающая Битва / Последний Бой

Сезон 2
14. Работорговец Слэйгер / Слагар - работорговец
15. Волшебство раскрывается / Разоблачение волшебника
16. Куда идёт маленький народец / Где ходит маленький народец
17. Найти и потерять / Найдены и потеряны
18. Быть воином / Быть воином
19. Железный Клюв / Железный Клюв
20. Опасность горной страны / В опасности
21. Пернатые друзья и враги / Пернатые друзья и враги
22. Пропасть / Пропасть
23. Малкарисс / Малкарисс
24. Битва / Битва
25. Воссоединение / Снова вместе
26. Возвращение в Рэдволл / Возвращение в Рэдволл

Сезон 3
27. В плену
28. Возвращение Клогга
29. Бегство из Маршанка
30. Новые друзья и старые враги
31. Жизнь - это игра
32. Свобода и Монстры
33. Удача улыбается
34. От болот до горных высот
35. Герои и дураки
36. В тоннеле
37. Месть Фэлдо
38. Сражение за Маршанк
39. Роза Светлой Долины
General
Unique ID : 229464219982296367678182002419817780775 (0xACA13384A8369A4597D547ECDFB81627)
Complete name : XXXX\[M-KV2501] Redwall 1x01 (01) [DVDRemux].mkv
Format : Matroska
Format version : Version 4 / Version 2
File size : 756 MiB
Duration : 22 min 36 s
Overall bit rate mode : Variable
Overall bit rate : 4 678 kb/s
Encoded date : UTC 2017-09-28 19:41:38
Writing application : mkvmerge v15.0.0 ('Duel with the Devil') 64-bit
Writing library : libebml v1.3.5 + libmatroska v1.4.5

Video
ID : 1
Format : MPEG Video
Format version : Version 2
Format profile : Main@Main
Format settings, BVOP : Yes
Format settings, Matrix : Custom
Format settings, GOP : M=3, N=15
Format settings, picture st : Frame
Codec ID : V_MPEG2
Codec ID/Info : MPEG 1 or 2 Video
Duration : 22 min 36 s
Bit rate mode : Variable
Bit rate : 4 032 kb/s
Maximum bit rate : 8 500 kb/s
Width : 720 pixels
Height : 480 pixels
Display aspect ratio : 4:3
Frame rate mode : Variable
Frame rate : 29.970 FPS
Standard : NTSC
Color space : YUV
Chroma subsampling : 4:2:0
Bit depth : 8 bits
Scan type : Interlaced
Scan order : Top Field First
Compression mode : Lossy
Bits/(Pixel*Frame) : 0.389
Time code of first frame : 00:00:00;00
Time code source : Group of pictures header
GOP, Open/Closed : Closed
Stream size : 652 MiB (86%)
Title : Original
Language : English
Default : Yes
Forced : No

Audio #1
ID : 2
Format : AC-3
Format/Info : Audio Coding 3
Mode extension : CM (complete main)
Format settings, Endianness : Big
Codec ID : A_AC3
Duration : 22 min 35 s
Bit rate mode : Constant
Bit rate : 192 kb/s
Channel(s) : 2 channels
Channel positions : Front: L R
Sampling rate : 48.0 kHz
Frame rate : 31.250 FPS (1536 spf)
Bit depth : 16 bits
Compression mode : Lossy
Stream size : 31.0 MiB (4%)
Title : ТНТ
Language : Russian
Default : Yes
Forced : No

Audio #2
ID : 3
Format : AC-3
Format/Info : Audio Coding 3
Mode extension : CM (complete main)
Format settings, Endianness : Big
Codec ID : A_AC3
Duration : 22 min 36 s
Bit rate mode : Constant
Bit rate : 192 kb/s
Channel(s) : 2 channels
Channel positions : Front: L R
Sampling rate : 48.0 kHz
Frame rate : 31.250 FPS (1536 spf)
Bit depth : 16 bits
Compression mode : Lossy
Stream size : 31.0 MiB (4%)
Title : Пилот
Language : Russian
Default : No
Forced : No

Audio #3
ID : 4
Format : AC-3
Format/Info : Audio Coding 3
Mode extension : CM (complete main)
Format settings, Endianness : Big
Codec ID : A_AC3
Duration : 22 min 36 s
Bit rate mode : Constant
Bit rate : 256 kb/s
Channel(s) : 2 channels
Channel positions : Front: L R
Sampling rate : 48.0 kHz
Frame rate : 31.250 FPS (1536 spf)
Bit depth : 16 bits
Compression mode : Lossy
Stream size : 41.4 MiB (5%)
Title : Original
Language : English
Default : No
Forced : No
Внимание, данная раздача содержит эксклюзивный контент от M-KV2501. Использовать контент без баннера группы: и указания первоначального источника - ЗАПРЕЩЕНО!


Трекер:  [ 29-Сен-2017 01:24 ]

  

Скачать .torrent

Размер .torrent файла 155 KB


Размер: 30.36 GB
Хэш (hash) релиза: 1779b4dea8fcd9556546aedfbee685dcc88b61bf
Подписка на обновления:

Еще никто не оставлял запись к записи скачать торрент Рэдволл Redwall . Будь первым!

!Обратная связь