Скачать через торрент Сильнее огня Фильм бесплатно в хорошем качестве torrent

Скачивайте на UnionPeer.org фильмы через торрент без регистрации. Новинки кино в хорошем качестве через торрент. На UnionPeer.org можно скачать через торрент фильмы 2014 и 2015 годов. Самые новые фильмы.

Скачать торрент Сильнее огня бесплатно через .torrent фильм мультфильм сериал

Если у вас наблюдаются проблемы со скриншотами, переходом по ссылками, скачиванием торрентов - проблемы в блокировщике рекламы AdBlock. #хорошегоДня!


Статистика раздачи
Размер:  4.36 GB   |    Зарегистрирован:  18 дней   |    .torrent скачан:  31 раз   |   
Раздают:  1  
   
Загрузка...
 
Автор Сообщение

Galfimbul

avatar Galfimbul


Сильнее огня

Страна: Россия, Украина
Жанр: боевик, драма, военный
Год выпуска: 2007
Продолжительность: 03:21:22

Перевод: Не требуется
Субтитры: нет
Оригинальная аудиодорожка: русская

Режиссер: Виталий Воробьев, Евгений Звездаков

В ролях: Никита Зверев, Татьяна Арнтгольц, Владимир Стержаков, Борис Щербаков, Андрей Фролов, Максим Заусалин, Александр Ильин мл., Антон Капанин, Алексей Ильин, Игорь Салимонов

Описание: Действие фильма начинается 21 июня 1941 года, когда немецкие войска уже скрыто стояли возле границы Советского Союза. Герои фильма — молодые артиллеристы, оказываются в центре событий с первых часов войны. Утратив вооружение, совершив побег из немецкого плена, они принимают бой с большими силами противника. Дальнейшие действия кинокартины происходит уже в 1942-1943 годах. Главных героев ожидают еще более опасные и драматические испытания.

Меню: есть, анимированное

Тип релиза: DVD5
Контейнер: DVD-Video

Видео: PAL 4:3 (720x576(0.240)) MPEG Video, 25,000 кадр/сек, 2487 Кбит/сек
Аудио: Russian (Dolby AC-3, 6 ch) 448 Кбит/сек, 48.0 КГц
Общее
Полное имя : Silnee_ogna_2007_DVD5_ [torrents.ru]\VIDEO_TS\VTS_01_1.VOB
Формат : MPEG-PS
Размер файла : 1024 Мбайт
Продолжительность : 47 м. 48 с.
Режим общего битрейта : Переменный
Общий поток : 2995 Кбит/сек

Видео
Идентификатор : 224 (0xE0)
Формат : MPEG Video
Версия формата : Version 2
Профиль формата : Main@Main
Параметр BVOP формата : Да
Параметр матрицы формата : По умолчанию
Параметр GOP формата : Variable
Продолжительность : 47 м. 48 с.
Вид битрейта : Переменный
Битрейт : 2487 Кбит/сек
Максимальный битрейт : 8000 Кбит/сек
Ширина : 720 пикселей
Высота : 576 пикселей
Соотношение сторон : 4:3
Частота кадров : 25,000 кадров/сек
Стандарт вещания : PAL
Цветовое пространство : YUV
Субдискретизация насыщенности : 4:2:0
Битовая глубина : 8 бит
Метод сжатия : С потерями
Бит/(Пиксели*Кадры) : 0.240
Размер потока : 850 Мбайт (83%)

Аудио
Идентификатор : 189 (0xBD)-128 (0x80)
Формат : AC-3
Формат/Информация : Audio Coding 3
Параметр Endianness формата : Big
Режим смешивания : DVD-Video
Продолжительность : 47 м. 48 с.
Вид битрейта : Постоянный
Битрейт : 448 Кбит/сек
Каналы : 6 каналов
Расположение каналов : Front: L C R, Side: L R, LFE
Частота : 48,0 КГц
Частота кадров : 31,250 кадров/сек (1536 spf)
Битовая глубина : 16 бит
Метод сжатия : С потерями
Задержка видео : -50 мс.
Размер потока : 153 Мбайт (15%)
ServiceKind/String : Complete Main


Трекер:  [ 28-Сен-2017 22:06 ]

  

Скачать .torrent

Размер .torrent файла 12 KB


Размер: 4.36 GB
Хэш (hash) релиза: e6c67febe557df4f8496a9c9d526b699fc6026cd
Подписка на обновления:

Еще никто не оставлял запись к записи скачать торрент Сильнее огня . Будь первым!

!Обратная связь