Скачать через торрент Удивительные Злоключения Флэпджека The Marvelous Misadventures of Flapjack Фильм бесплатно в хорошем качестве torrent

Скачивайте на UnionPeer.org фильмы через торрент без регистрации. Новинки кино в хорошем качестве через торрент. На UnionPeer.org можно скачать через торрент фильмы 2014 и 2015 годов. Самые новые фильмы.

Скачать торрент Удивительные Злоключения Флэпджека The Marvelous Misadventures of Flapjack бесплатно через .torrent фильм мультфильм сериал

Если у вас наблюдаются проблемы со скриншотами, переходом по ссылками, скачиванием торрентов - проблемы в блокировщике рекламы AdBlock. #хорошегоДня!


Статистика раздачи
Размер:  5.69 GB   |    Зарегистрирован:  25 дней   |    .torrent скачан:  11 раз   |   
Раздают:  1   Качают:  1  
   
Загрузка...
 
Автор Сообщение

Galfimbul

avatar Galfimbul


Удивительные Злоключения Флэпджека
The Marvelous Misadventures of FlapjackСезон 1Серии: 1-40 из 40
Страна: США
Производство: Cartoon Network
Жанр: Мультфильм, фэнтези, комедия, приключения
Продолжительность: 00:11:00
Года выпуска: 2008
Перевод:

Профессиональный (полное дублирование) | Cartoon Network
Оригинальная звуковая дорожка (English)

Русские субтитры: нет
Английские субтитры: нетРежиссёр: Туроп Ван Орман / Thurop Van OrmanЭтот необычный мультфильм рассказывает о невероятных морских, и не только, приключениях маленького мальчика Флепджека и его друга Капитана Кастета. Вместе они живут и путешествуют на большой китихе Бабби, которая когда-то давно приютила малыша Флепа и теперь ему вместо мамы. Все вместе они отправляются на опасные поиски острова Карамелии, учатся завоевывать побольше врагов, чтобы стать настоящими путешественниками и спасаются от короля острова Кленового Сиропа. В какие только приключения не попадает веселый Флепджек. Все раздачи мультсериалаКачество: Web-dl 480p iTunes
Формат: MKV
Видео: 640x480 (4:3) at 24 fps, Baseline@L3, ~1500 kbps avg, ~0.150bpp
Аудио:

Russian: 48 kHz, AC3 Dolby Digital, 2 ch, ~192 kbps | Cartoon Network
English: 48 kHz, AAC Dolby Digital, 2 ch, ~140 kbps
GeneralUnique ID : 226399646842014826265977866648699713838 (0xAA52FC659796F62AAA2E90172E36B92E)Complete name : \The Marvelous Misadventures of Flapjack - Season 1\The.Marvelous.Misadventures.of.Flapjack.s01e02.Kid.Nickels.-.The.Sweet.Life.480p.Dub.mkvFormat : MatroskaFormat version : Version 4 / Version 2File size : 293 MiBDuration : 23 min 7 sOverall bit rate : 1 772 kb/sMovie name : Kid Nickels / The Sweet LifeEncoded date : UTC 2017-09-27 16:25:13Writing application : mkvmerge v15.0.0 ('Duel with the Devil') 64-bitWriting library : libebml v1.3.5 + libmatroska v1.4.5Attachments : poster.jpg

VideoID : 1Format : AVCFormat/Info : Advanced Video CodecFormat profile : Baseline@L3Format settings, CABAC : NoFormat settings, ReFrames : 1 frameCodec ID : V_MPEG4/ISO/AVCDuration : 23 min 7 sBit rate : 1 452 kb/sWidth : 640 pixelsHeight : 480 pixelsDisplay aspect ratio : 4:3Frame rate mode : ConstantFrame rate : 29.970 (29970/1000) FPSColor space : YUVChroma subsampling : 4:2:0Bit depth : 8 bitsScan type : ProgressiveBits/(Pixel*Frame) : 0.158Stream size : 240 MiB (82%)Title : The Marvelous Misadventures of FlapjackLanguage : EnglishDefault : YesForced : NoColor range : LimitedColor primaries : BT.601 NTSCTransfer characteristics : BT.709Matrix coefficients : BT.601

Audio #1ID : 2Format : AC-3Format/Info : Audio Coding 3Mode extension : CM (complete main)Format settings, Endianness : BigCodec ID : A_AC3Duration : 23 min 7 sBit rate mode : ConstantBit rate : 192 kb/sChannel(s) : 2 channelsChannel positions : Front: L RSampling rate : 48.0 kHzFrame rate : 31.250 FPS (1536 spf)Bit depth : 16 bitsCompression mode : LossyStream size : 31.8 MiB (11%)Title : [Dub Cartoon Network]Language : RussianDefault : YesForced : No

Audio #2ID : 3Format : AACFormat/Info : Advanced Audio CodecFormat profile : LCCodec ID : A_AACDuration : 23 min 7 sBit rate : 122 kb/sChannel(s) : 2 channelsChannel positions : Front: L RSampling rate : 44.1 kHzFrame rate : 43.066 FPS (1024 spf)Compression mode : LossyStream size : 20.1 MiB (7%)Title : OriginalLanguage : EnglishDefault : NoForced : No

Menu00:00:00.000 : en:Intro00:00:31.398 : en:Kid Nickels00:11:29.622 : en:The Sweet Life
(Полноразмерные скриншоты открываются кликом по миниатюре)
01a. Пару лье под водой / Several Leagues Under the Sea
01b. Я тебя вижу / Eye See You
02a. Пятак / Kid Nickels
02b. Сладкая жизнь / The Sweet Life
03a. Пару лье над водой! / Several Leagues Above the Sea!
03b. Вот фантик / That's a Wrap!
04a. Остров Кемми / Cammie Island
04b. Постричь и побрить надвоих / Shave and a Haircut... Two Friends!
05a. Ученье - свет / Skooled
05b. Нашествие монстра / Snarked
06a. Ноги жжет / Footburn
06b. Дай сюда / Hand It Over
07a. Такой забавный Запад / How the West Was Fun
07b. Кастет - грязная крыса / K'nuckles is a Filthy Rat
08a. Сидалище / Sittin' Muscle
08b. Не смешно / Knot Funny
09a. Здесь не стоит искать любви / Lookin' for Love in all the Wrong Barrels
09b. Бородатые парни / Beard Buddies
10a. Каламбур с остряком МакКейном / Pun Times with Punsie McHale
10b. Равновесие / Balance
11a. Остров механического джина / Mechanical Genie Island
11b. Месть / Revenge
12a. Ну и ну / Oh Brother
12b. Джекфлак / Panfake
13a. Смех и слезы / Lead 'em and Weep
13b. Морские ежи / Sea Urchins
14a. Любовная лихорадка / Love Bugs
14b. История китов / Whale Times
15a. Морская находка / Sea Legs
15b. Без сиропа / No Syrup for Old Flapjacks
16a. Человек-куст / Plant Man
16b. Рыбьи головы / Fish Heads
17a. Что-то не так / Something's a Miss
17b. Ушел в мечты / Gone Wishin
18a. Улыбнитесь, вас надули / Ben Boozled
18b. Гнев Посейдона / Candy Cruise Blues
19a. Мой ангел-хранитель меня убивает / My Guardian Angel Is Killin' Me
19b. Дорогой дневник / Dear Diary
20a. Такой брилиант в таком навозе / Diamonds In the Stuff
20b. Хи-хи-трам-парам / Tee Hee Tummy Tums


Трекер:  [ 27-Сен-2017 20:54 ]

  

Скачать .torrent

Размер .torrent файла 17 KB


Размер: 5.69 GB
Хэш (hash) релиза: 4be3b24ad3b342ab6245733de9c78ea4a4262c6c
Подписка на обновления:

Еще никто не оставлял запись к записи скачать торрент Удивительные Злоключения Флэпджека The Marvelous Misadventures of Flapjack . Будь первым!

!Обратная связь