Скачать через торрент Джефф и инопланетяне Jeff & Some Aliens Фильм бесплатно в хорошем качестве torrent

Скачивайте на UnionPeer.org фильмы через торрент без регистрации. Новинки кино в хорошем качестве через торрент. На UnionPeer.org можно скачать через торрент фильмы 2014 и 2015 годов. Самые новые фильмы.

Скачать торрент Джефф и инопланетяне Jeff & Some Aliens бесплатно через .torrent фильм мультфильм сериал

Если у вас наблюдаются проблемы со скриншотами, переходом по ссылками, скачиванием торрентов - проблемы в блокировщике рекламы AdBlock. #хорошегоДня!


Статистика раздачи
Размер:  5.69 GB   |    Зарегистрирован:  26 дней   |    .torrent скачан:  14 раз   |   
Раздают:  1  
   
Загрузка...
 
Автор Сообщение

Galfimbul

avatar Galfimbul


Джефф и инопланетяне / Jeff & Some Aliens

Страна: США
Жанр: комедия
Продолжительность серии: 00:22:00
Год выпуска: 2017
Перевод: Любительский (одноголосый закадровый) /BadRulesrama/
Русские субтитры: нет

Режиссёр: Шон Доннелли / Sean Donnelly
Роли озвучивали: Бретт Гельман, Джош Фэйдем, Алессандро Миноли, Джон Дэйли, Марк Иванир, Карлос Аласраки, Патрик Ст. Эсприт, Ричард Кайнд, Алисия Сильверстоун, Шон Доннелли и тд.

Описание: Джефф — типичный неудачник, который работает в смузи-кафе и большую часть времени проводит в своей холостяцкой квартирке в окружении творческого беспорядка. Однажды тройка инопланетян выбирает его в качестве объекта изучения, чтобы поближе познакомиться с человеческой расой. Пришельцам предстоит тщательно рассмотреть все аспекты земной жизни и решить, уничтожать человечество или нет. Теперь от того, как себя покажет Джефф, зависит судьба планеты.

Качество: WEBRip 1080p
Формат: MKV

Видео: MPEG-4 AVC, 1920x1080, 23.976 fps, 3577 kbps
Аудио Rus: AC3 Dolby Digital, 2 ch, 192 kbps, 48 kHz
Аудио Eng: AAC, 2 ch, 128 kbps, 48 kHz
Субтитры: Английские

Сэмпл
01 - Jeff & Some Honor Killings
02 - Jeff & Some Energy Trading
03 - Jeff & Some Preteen Girls
04 - Jeff & Some Laughs
05 - Jeff & Some Colonists
06 - Jeff & Some Confidence
07 - Jeff & Some Jeffs
08 - Jeff & Some Childlike Joy & Whimsy
09 - Jeff & Some Love
10 - Jeff & Some Love Simulations
GeneralUnique ID : 227523758030759571827663050693127817303 (0xAB2B7B5B82CA8D6590D487AFFDE1C857)Complete name : D:\Раздачи\Jeff.and.Some.Aliens.S01.1080p.WEBRip.x264-BkD\Jeff.and.Some.Aliens.S01E01.1080p.WEBRip.x264-BkD.mkvFormat : MatroskaFormat version : Version 4 / Version 2File size : 593 MiBDuration : 21 min 15 sOverall bit rate : 3 899 kb/sEncoded date : UTC 2017-08-22 23:29:41Writing application : mkvmerge v8.2.0 ('World of Adventure') 64bitWriting library : libebml v1.3.1 + libmatroska v1.4.2

VideoID : 1Format : AVCFormat/Info : Advanced Video CodecFormat profile : High@L4Format settings, CABAC : YesFormat settings, ReFrames : 4 framesCodec ID : V_MPEG4/ISO/AVCDuration : 21 min 15 sBit rate : 3 577 kb/sWidth : 1 920 pixelsHeight : 1 080 pixelsDisplay aspect ratio : 16:9Frame rate mode : ConstantFrame rate : 23.976 (24000/1001) FPSColor space : YUVChroma subsampling : 4:2:0Bit depth : 8 bitsScan type : ProgressiveBits/(Pixel*Frame) : 0.072Stream size : 544 MiB (92%)Writing library : x264 core 138Encoding settings : cabac=1 / ref=4 / deblock=1:0:0 / analyse=0x3:0x113 / me=umh / subme=10 / psy=1 / psy_rd=1.00:0.15 / mixed_ref=1 / me_range=32 / chroma_me=1 / trellis=2 / 8x8dct=1 / cqm=0 / deadzone=21,11 / fast_pskip=1 / chroma_qp_offset=-3 / threads=32 / lookahead_threads=2 / sliced_threads=0 / nr=0 / decimate=0 / interlaced=0 / bluray_compat=0 / constrained_intra=0 / bframes=3 / b_pyramid=0 / b_adapt=2 / b_bias=0 / direct=3 / weightb=1 / open_gop=0 / weightp=2 / keyint=48 / keyint_min=23 / scenecut=0 / intra_refresh=0 / rc_lookahead=48 / rc=crf / mbtree=1 / crf=19.0 / qcomp=0.60 / qpmin=10 / qpmax=51 / qpstep=4 / vbv_maxrate=5000 / vbv_bufsize=10000 / crf_max=0.0 / nal_hrd=none / filler=0 / ip_ratio=1.40 / aq=1:0.80Language : EnglishDefault : YesForced : No

Audio #1ID : 2Format : AC-3Format/Info : Audio Coding 3Mode extension : CM (complete main)Format settings, Endianness : BigCodec ID : A_AC3Duration : 21 min 15 sBit rate mode : ConstantBit rate : 192 kb/sChannel(s) : 2 channelsChannel positions : Front: L RSampling rate : 48.0 kHzFrame rate : 31.250 FPS (1536 spf)Compression mode : LossyStream size : 29.2 MiB (5%)Language : RussianDefault : YesForced : No

Audio #2ID : 3Format : AACFormat/Info : Advanced Audio CodecFormat profile : LCCodec ID : A_AACDuration : 21 min 15 sBit rate : 128 kb/sChannel(s) : 2 channelsChannel positions : Front: L RSampling rate : 48.0 kHzFrame rate : 46.875 FPS (1024 spf)Compression mode : LossyStream size : 19.5 MiB (3%)Language : EnglishDefault : NoForced : No

TextID : 4Format : UTF-8Codec ID : S_TEXT/UTF8Codec ID/Info : UTF-8 Plain TextDuration : 21 min 12 sBit rate : 145 b/sCount of elements : 513Stream size : 22.6 KiB (0%)Language : EnglishDefault : NoForced : No


Трекер:  [ 26-Сен-2017 11:54 ]

  

Скачать .torrent

Размер .torrent файла 15 KB


Размер: 5.69 GB
Хэш (hash) релиза: e008f8098602664192ddcfb9dd2f715c64da1419
Подписка на обновления:

Еще никто не оставлял запись к записи скачать торрент Джефф и инопланетяне Jeff & Some Aliens . Будь первым!

!Обратная связь