Скачать через торрент Футурама Futurama Фильм бесплатно в хорошем качестве torrent

Скачивайте на UnionPeer.org фильмы через торрент без регистрации. Новинки кино в хорошем качестве через торрент. На UnionPeer.org можно скачать через торрент фильмы 2014 и 2015 годов. Самые новые фильмы.

Скачать торрент Футурама Futurama бесплатно через .torrent фильм мультфильм сериал

Если у вас наблюдаются проблемы со скриншотами, переходом по ссылками, скачиванием торрентов - проблемы в блокировщике рекламы AdBlock. #хорошегоДня!


Статистика раздачи
Размер:  1.53 GB   |    Зарегистрирован:  27 дней   |    .torrent скачан:  12 раз   |   
Раздают:  1  
   
Загрузка...
 
Автор Сообщение

Galfimbul

avatar Galfimbul


Футурама / Futurama

Страна: США
Жанр: фантастика, комедия, мультфильм
Продолжительность серии: 22:30
Год выпуска: 1999
Русские субтитры: нет

Описание: Сериал начинается с того, что разносчик пиццы из Нью-Йорка Филипп Дж. Фрай случайно, как это кажется на первый взгляд, был заморожен в криогенной камере ровно в 00 часов 00 минут 00 секунд 1 января 2000 года. Он был разморожен тысячу лет спустя, 31 декабря 2999 года. Фрай оказывается в далёком будущем в городе Новый Нью-Йорк.

Список серий:
1ACV01 «Space Pilot 3000» (Космический пилот 3000)
1ACV02 «The Series Has Landed» (Сериал приземлился)
1ACV03 «I, Roommate» (Я, сосед)
1ACV04 «Love’s Labours Lost in Space» (Рабы любви, затерянные в космосе)
1ACV05 «Fear of a Bot Planet» (Страх планеты роботов)
1ACV06 «A Fishful of Dollars» (Пригоршня долларов)
1ACV07 «My Three Suns» (Мои три солнца)
1ACV08 «A Big Piece of Garbage» (Большой кусок мусора)
1ACV09 «Hell Is Other Robots» (Ад — это другие роботы)
1ACV10 «A Flight to Remember» (Незабываемый полёт)
1ACV11 «Mars University» (Марсианский университет)
1ACV12 «When Aliens Attack» (Когда пришельцы атакуют)
1ACV13 «Fry and the Slurm Factory» (Фрай и фабрика «Слёрма»)

Качество: DVDRip
Формат: MKV
Видео: Upscale DVD NTSC to 1440x1080 (4:3) - using Waifu2x, 23.976 fps, ~1200 Kbps HEVC
Аудио: AC-3, 48.0 KHz, 2 channels, 192 Kbps [Русский, Многоголосый закадровый (Ren-TV)]
Аудио 2: AC-3, 48.0 KHz, 2 channels, 192 Kbps [Английский, Оригинал]
Субтитры: отсутствуют

Важно: Это upscale до 1080p c американской версии DVD NTSC сделанный при помощи Waifu2x, на данный момент это лучшая версия по качеству картинки в интернете.
GeneralUnique ID : 221591161792398757473592483020669620073 (0xA6B4E7C7B03D7754808BCB4CF35A8F69)Complete name : C:\Cloud\Futurama (1080p)\Season 1\01 - Space Pilot 3000.mkvFormat : MatroskaFormat version : Version 4 / Version 2File size : 226 MiBDuration : 23 min 19 sOverall bit rate : 1 354 kb/sMovie name : 01 - Space Pilot 3000Encoded date : UTC 2017-09-25 09:45:06Writing application : mkvmerge v8.3.0 ('Over the Horizon') 64bitWriting library : libebml v1.3.1 + libmatroska v1.4.2

VideoID : 1Format : HEVCFormat/Info : High Efficiency Video CodingFormat profile : Main@L4@MainCodec ID : V_MPEGH/ISO/HEVCDuration : 23 min 19 sBit rate : 979 kb/sWidth : 1 440 pixelsHeight : 1 080 pixelsDisplay aspect ratio : 4:3Frame rate mode : VariableFrame rate : 23.976 FPSColor space : YUVChroma subsampling : 4:2:0Bit depth : 8 bitsBits/(Pixel*Frame) : 0.026Stream size : 163 MiB (72%)Writing library : x265 2.4+61-28bbc349d170:[Windows][GCC 7.1.0][64 bit] 8bitEncoding settings : cpuid=1050111 / frame-threads=3 / numa-pools=8 / wpp / no-pmode / no-pme / no-psnr / no-ssim / log-level=2 / input-csp=1 / input-res=1440x1080 / interlace=0 / total-frames=0 / level-idc=0 / high-tier=1 / uhd-bd=0 / ref=3 / no-allow-non-conformance / no-repeat-headers / annexb / no-aud / no-hrd / info / hash=0 / no-temporal-layers / open-gop / min-keyint=23 / keyint=250 / bframes=4 / b-adapt=2 / b-pyramid / bframe-bias=0 / rc-lookahead=20 / lookahead-slices=6 / scenecut=40 / no-intra-refresh / ctu=64 / min-cu-size=8 / no-rect / no-amp / max-tu-size=32 / tu-inter-depth=1 / tu-intra-depth=1 / limit-tu=0 / rdoq-level=0 / dynamic-rd=0.00 / no-ssim-rd / signhide / no-tskip / nr-intra=0 / nr-inter=0 / no-constrained-intra / strong-intra-smoothing / max-merge=2 / limit-refs=3 / no-limit-modes / me=1 / subme=2 / merange=57 / temporal-mvp / weightp / no-weightb / no-analyze-src-pics / deblock=0:0 / sao / no-sao-non-deblock / rd=3 / no-early-skip / rskip / no-fast-intra / no-tskip-fast / no-cu-lossless / no-b-intra / rdpenalty=0 / psy-rd=2.00 / psy-rdoq=0.00 / no-rd-refine / analysis-mode=0 / no-lossless / cbqpoffs=0 / crqpoffs=0 / rc=crf / crf=23.0 / qcomp=0.60 / qpstep=4 / stats-write=0 / stats-read=0 / ipratio=1.40 / pbratio=1.30 / aq-mode=1 / aq-strength=1.00 / cutree / zone-count=0 / no-strict-cbr / qg-size=32 / no-rc-grain / qpmax=69 / qpmin=0 / sar=0 / overscan=0 / videoformat=5 / range=0 / colorprim=2 / transfer=2 / colormatrix=2 / chromaloc=0 / display-window=0 / max-cll=0,0 / min-luma=0 / max-luma=255 / log2-max-poc-lsb=8 / vui-timing-info / vui-hrd-info / slices=1 / opt-qp-pps / opt-ref-list-length-pps / no-multi-pass-opt-rps / scenecut-bias=0.05 / no-opt-cu-delta-qp / no-aq-motion / no-hdr / no-hdr-opt / no-dhdr10-opt / refine-level=5 / scale-factor=0 / refine-intra=0 / refine-inter=0 / refine-mv=0 / no-limit-sao / ctu-info=0Default : YesForced : No

Audio #1ID : 2Format : AC-3Format/Info : Audio Coding 3Format settings, Endianness : BigCodec ID : A_AC3Duration : 22 min 39 sBit rate mode : ConstantBit rate : 192 kb/sChannel(s) : 2 channelsChannel positions : Front: L RSampling rate : 48.0 kHzFrame rate : 31.250 FPS (1536 SPF)Bit depth : 16 bitsCompression mode : LossyStream size : 31.1 MiB (14%)Language : RussianService kind : Complete MainDefault : YesForced : Yes

Audio #2ID : 3Format : AC-3Format/Info : Audio Coding 3Mode : Dolby DigitalFormat settings, Endianness : BigCodec ID : A_AC3Duration : 22 min 44 sBit rate mode : ConstantBit rate : 192 kb/sChannel(s) : 2 channelsChannel positions : Front: L RSampling rate : 48.0 kHzFrame rate : 31.250 FPS (1536 SPF)Bit depth : 16 bitsCompression mode : LossyStream size : 31.2 MiB (14%)Language : EnglishService kind : Complete MainDefault : NoForced : No


Трекер:  [ 25-Сен-2017 15:24 ]

  

Скачать .torrent

Размер .torrent файла 16 KB


Размер: 1.53 GB
Хэш (hash) релиза: 82c5f2473269b46a5cc12dcf7fbabe7f4328fa72
Подписка на обновления:

Торренты, похожие на Футурама Futurama скачать торрент

Форум Название Автор Размер S L Добавлен
Мультсериалы ·· Футурама / Futurama / Сезон: 1 / Серии: 9 из 13 (Мэтт Грейнинг / Matt Groening) [1999, США, Фантастика, комедия, VHSRip] MVO (Гемини Фильм) Galfimbul 64965365766.05 GB 0 0 1499320726

08:58

6-Июл-17

Мультсериалы ·· Футурама / Futurama / Сезон: 6 / Серии: 1-13 из 26 (Мэтт Гроунинг / Matt Groening) [2010, Мультфильм, комедия, фантастика, BDRip 720p / ECO] MVO / 2Х2 / Кубик в Кубе / Vo-production / LostFilm / rus sub Galfimbul 61559066345.73 GB 0 0 1418938240

00:30

19-Дек-14

Мультсериалы ·· Футурама / Futurama / Сезон: 7 / Серии: 1-13 из 26 (Мэтт Гроунинг / Matt Groening) [2012, Мультфильм, комедия, фантастика, WEB-DLRip] MVO (LostFilm) + Original + Rus & Eng Subs Galfimbul 50554261314.71 GB 0 0 1418938154

00:29

19-Дек-14

Мультсериалы ·· Футурама / Futurama / Сезон: 7 / Серии: 1-13 из 26 (Мэтт Гроунинг / Matt Groening) [2012, Мультфильм, фантастика, комедия, BDRip 1080p] DVO (Кубик в Кубе) + MVO (LostFilm) + Original + Subs (Rus Eng) Galfimbul 90923609048.47 GB 0 0 1418938127

00:28

19-Дек-14

Мультсериалы ·· Футурама / Futurama / Сезон: 7 / Серии: 1-13 из 26 (Мэтт Гроунинг / Matt Groening) [2012, Фантастика, комедия, WEB-DL] DVO 2x2 + Rus Sub НФСФ Galfimbul 91605945748.53 GB 0 0 1418938085

00:28

19-Дек-14

Мультсериалы ·· Футурама / Futurama / Сезон: 7 / Серии: 1-13 из 26 (Мэтт Грёйнинг / Matt Groening) [2012, Мультфильм, фантастика, комедия, BDRip 1080p] DVO (2х2) + DVO (Кубик в Кубе) + Mvo (LostFilm) + Mvo (VO-production) Rus Sub (НФСФ) Eng Sub Galfimbul 1695091431715.79 GB 0 0 1418938076

00:27

19-Дек-14

Мультсериалы ·· Футурама / Futurama / Сезон: 7 / Серии: 1-13 из 26 (Мэтт Грёйнинг / Matt Groening) [2012, Мультфильм, фантастика, комедия, BDRip 720p] DVO (2х2) + DVO (Кубик в Кубе) + Mvo (LostFilm) + Mvo (VO-production) Rus Sub (НФСФ) Eng Sub Galfimbul 94654749778.82 GB 0 0 1418938072

00:27

19-Дек-14

Мультсериалы ·· Футурама / Futurama / Сезон 6 / Серии 1-12 из 13 (Мет Гроунинг) [2010 г., Мультсериал, HDTVRip] [озвучка yuraflash] VitalMedix 24957009922.32 GB 0 0 1288086851

12:54

26-Окт-10

Мультсериалы ·· Футурама (том 1) / Futurama (volume 1) / Сезон: 1 / Серии: 13 из 13 (Мэтт Грейнинг / Matt Groening) [1999, США, Фантастика, комедия, драма, NTSC, DVDRemux] MVO (Ren-TV) + VO (kyberpunk) + Sub (Rus) + Sub (Eng) Galfimbul 1595708785814.86 GB 0 0 1491080809

00:06

2-Апр-17

Мультсериалы ·· Футурама (том 1) / Futurama (volume 1) / Сезон: 1 / Серии: 13 из 13 (Мэтт Грейнинг / Matt Groening) [1999, США, Фантастика, комедия, драма, NTSC, DVDRemux] MVO + VO Rus Ukr Eng Galfimbul 1595621544514.86 GB 0 0 1447162685

16:38

10-Ноя-15

Мультсериалы ·· Футурама (сезон 1) / Futurama (volume 1) / Сезон: 1 / Серии: 13 из 13 (Мэтт Грейнинг / Matt Groening) [1999, США, Фантастика, комедия, драма, NTSC, DVDRemux] MVO Galfimbul 1546281407214.4 GB 0 0 1446892801

13:40

7-Ноя-15

Мультсериалы ·· Футурама (сезон 1) / Futurama (season 1) / Сезон: 1 / Серии: 4 из 13 (Мэтт Грейнинг / Matt Groening) [1999, Фантастика, комедия, драма, DVDRemux] MVO + Rus Sub Galfimbul 35014845023.26 GB 0 0 1436108165

17:56

5-Июл-15

Еще никто не оставлял запись к записи скачать торрент Футурама Futurama . Будь первым!

!Обратная связь