Скачать через торрент Облачно, возможны осадки в виде фрикаделек Cloudy with a Chance of Meatballs Фильм бесплатно в хорошем качестве torrent

Скачивайте на UnionPeer.org фильмы через торрент без регистрации. Новинки кино в хорошем качестве через торрент. На UnionPeer.org можно скачать через торрент фильмы 2014 и 2015 годов. Самые новые фильмы.

Скачать торрент Облачно, возможны осадки в виде фрикаделек Cloudy with a Chance of Meatballs бесплатно через .torrent фильм мультфильм сериал

Если у вас наблюдаются проблемы со скриншотами, переходом по ссылками, скачиванием торрентов - проблемы в блокировщике рекламы AdBlock. #хорошегоДня!


Статистика раздачи
Размер:  898 MB   |    Зарегистрирован:  28 дней   |    .torrent скачан:  10 раз   |   
Раздают:  1  
   
Загрузка...
 
Автор Сообщение

Galfimbul

avatar Galfimbul


Облачно, возможны осадки в виде фрикаделек
Cloudy with a Chance of Meatballs
Год выпуска: 2017
Страна: Канада, США
Жанр: мультсериал, комедия
Продолжительность серии: ≈11 мин.
Перевод: Профессиональный (дублированный)

Режиссёр: Йос Хамфей / Jos Humphrey, Стивен Гарсиа / Steven Garcia

Описание: Флинт Локвуд – ученик старшей школы, который страдает от СНР (снов-не связанных-с рыбами). Он старается стать серьёзным изобретателем в мире за пределами сардин... и, возможно, в один прекрасный день его изобретения смогут принести миру пользу, а не просто взорваться у него перед носом. Его соратница Сэм Спаркс – новая девочка в городке и увлечённый метеоролог.

Релиз группы:

Доп. информация: Огромная благодарность Beer kolesik Drinkers за исходники DVB!

Качество: DVB
Формат: TS
Видео кодек: MPEG4
Аудио кодек: MP2
Видео: MPEG4 Video (H264) 720x576 (16:9) 25fps 1702-2120kbps
Аудио 1: MPEG Audio 48000Hz stereo 192kbps (Russian)
Аудио 2: MPEG Audio 48000Hz stereo 192kbps (English)
1 серия – И победитель... / And the Winner Is...
2 серия – Принцесса Мягкие Лапки / Princess Kittymittens
4 серия – Беконовая девочка / Bacon Girl
5 серия – Это кто здесь мусор? / Who You Calling Garbage?
6 серия – Баллада о Джоне Сардинке / The Ballad of Johnny Sardine
GeneralID : 1 (0x1)Complete name : S01E01 Cloudy with a Chance of Meatballs - And the Winner Is....tsFormat : MPEG-TSFile size : 186 MiBDuration : 10 min 44 sOverall bit rate mode : VariableOverall bit rate : 2 415 kb/s

VideoID : 67 (0x43)Menu ID : 1 (0x1)Format : AVCFormat/Info : Advanced Video CodecFormat profile : High@L3Format settings, CABAC : YesFormat settings, ReFrames : 4 framesCodec ID : 27Duration : 10 min 44 sBit rate : 1 907 kb/sWidth : 720 pixelsHeight : 576 pixelsDisplay aspect ratio : 16:9Frame rate : 25.000 FPSStandard : ComponentColor space : YUVChroma subsampling : 4:2:0Bit depth : 8 bitsScan type : InterlacedScan type, store method : Separated fieldsScan order : Top Field FirstBits/(Pixel*Frame) : 0.184Stream size : 147 MiB (79%)Color range : LimitedColor primaries : BT.601 PALTransfer characteristics : BT.470 System B, BT.470 System GMatrix coefficients : BT.601

Audio #1ID : 68 (0x44)Menu ID : 1 (0x1)Format : MPEG AudioFormat version : Version 1Format profile : Layer 2Codec ID : 3Duration : 10 min 44 sBit rate mode : ConstantBit rate : 192 kb/sChannel(s) : 2 channelsSampling rate : 48.0 kHzCompression mode : LossyDelay relative to video : -8 msStream size : 14.8 MiB (8%)Language : Russian

Audio #2ID : 69 (0x45)Menu ID : 1 (0x1)Format : MPEG AudioFormat version : Version 1Format profile : Layer 2Codec ID : 3Duration : 10 min 44 sBit rate mode : ConstantBit rate : 192 kb/sChannel(s) : 2 channelsSampling rate : 48.0 kHzCompression mode : LossyDelay relative to video : -8 msStream size : 14.8 MiB (8%)Language : English
При каждом добавлении создётся новый торрент. Чтобы начать докачку новой серии, пользователям необходимо сделать следующее:
1) остановить скачивание;
2) удалить старый торрент у себя из клиента (старые серии удалять не надо);
3) скачать новый торрент и запустить его у себя в клиенте вместо старого, при этом указать клиенту путь в старую папку куда и должно происходить скачивание новых серий.
Ваш клиент при этом должен произвести хеширование (проверку) старой папки (если не производит сам - помогите ему сделать это), и будет докачивать только те серии, которых у вас ещё нет. Старые серии при этом не удаляются, а продолжают раздаваться!
Eсли вы уже удалили старые серии, то предотвратить повторную закачку старых серий можно, отжав галочку в соответствующих местах при запуске нового торрента.


Трекер:  [ 24-Сен-2017 21:24 ]

  

Скачать .torrent

Размер .torrent файла 18 KB


Размер: 898 MB
Хэш (hash) релиза: e238d397cd3f2aafc3899dda822c305b9a46f68b
Подписка на обновления:

Еще никто не оставлял запись к записи скачать торрент Облачно, возможны осадки в виде фрикаделек Cloudy with a Chance of Meatballs . Будь первым!

!Обратная связь