Скачать через торрент Семейка Крудс. Начало Dawn of the Croods Фильм бесплатно в хорошем качестве torrent

Скачивайте на UnionPeer.org фильмы через торрент без регистрации. Новинки кино в хорошем качестве через торрент. На UnionPeer.org можно скачать через торрент фильмы 2014 и 2015 годов. Самые новые фильмы.

Скачать торрент Семейка Крудс. Начало Dawn of the Croods бесплатно через .torrent фильм мультфильм сериал

Если у вас наблюдаются проблемы со скриншотами, переходом по ссылками, скачиванием торрентов - проблемы в блокировщике рекламы AdBlock. #хорошегоДня!


Статистика раздачи
Размер:  20.01 GB   |    Зарегистрирован:  29 дней   |    .torrent скачан:  8 раз   |   
Раздают:  1  
   
Загрузка...
 
Автор Сообщение

Galfimbul

avatar Galfimbul


Семейка Крудс. Начало
Dawn of the Croods
Год выпуска: 2015
Страна: США
Жанр: мультфильм, комедия, семейный
Продолжительность: 26 х 00:23:00
Перевод: Профессиональный (Дублированный)
русские субтитры: нетРежиссёр: Алекс Альмагер : Alex Almager, Брайан Хэтфил : Brian Hatfi, Кристал Чесни : Crystal ChesneyРоли озвучивали: Дэн Милано, А.Дж. Локасцио, Лорейн Ньюмен, Стефани Николь Лемелин, Кри Саммер, Ди Брэдли Бейкер, Грэй ДеЛисл, Доминик Кэтрэмбоун, Крис Парнелл, Томас Леннон

Роли дублировали: Александр Носков, Василий Зотов, Ирина Савина, Ирина Киреева, Татьяна ШитоваОписание: Землетрясение уничтожило дом доисторической семьи, и теперь им придётся искать другое пристанище. А вокруг новый и опасный мир! Только вместе они смогут выжить и достичь своей цели… релиз: Запись дубляжа, спасибо afedrenkv
Работа со звуком, спасибо *Sergeant_am*
Исходник, спасибо SergeZuichКачество: WEBRip 1080p
Формат: MKV
Видео кодек: AVC
Аудио кодек: АС3
Видео: 1920x1080, 23,976 fps, ~5 360 kbps avg, 0.103 bit/pixel
Аудио #1: [RUS] 48 kHz, AC3 2 ch 192 kbps
Аудио #2: [ENG] 48 kHz, AC3 Dolby Digital, 3/2 (L,C,R,l,r) + LFE ch, ~384 kbps
субтитры: английские
1 сезон
01. A Gran Day Out
02. School Of Hard Rocks
03. Wet Hot Ahhh Valley Summer
04. Grug Vs The Moon
05. This Means Warts
06. The First Picture Show
07. Caved and Confused
08. The Eep-Over
09. Thunkytown
10. Mom Genes
11. Garden Of Eaten
12. Night Of The Living Croods
13. A Spoonful Of Soo-Gar

2 сезон
01. Gran The Unfriendly Ghost
02. Bad Sandy
03. It Crushes
04. Rebel Without A Paws
05. Grug Vs Math
06. Footloss
07. The Good Surprise
08. Night Mare On Eep Street
09. What Screams May Come
10. Grunt Anything
11. I Think Were Alone Meow
12. There Will Be Eggs
13. Freepy Friday
General
Unique ID : 202615237417805188339888250346023698621 (0x986E46799D9D3AA1BD5A04265E4840BD)
Complete name : D:\Mult\Dawn of the Croods.2015.WEBRip 1080p\Dawn of the Croods. season 1\01. Dawn of the Croods. A Gran Day Out.mkv
Format : Matroska
Format version : Version 4 / Version 2
File size : 986 MiB
Duration : 23 min
Overall bit rate mode : Variable
Overall bit rate : 5 881 kb/s
Encoded date : UTC 2017-09-21 10:52:13
Writing application : mkvmerge v13.0.0 ('The Juggler') 64bit
Writing library : libebml v1.3.4 + libmatroska v1.4.5

Video
ID : 1
Format : AVC
Format/Info : Advanced Video Codec
Format profile : Main@L4
Format settings, CABAC : Yes
Format settings, ReFrames : 3 frames
Codec ID : V_MPEG4/ISO/AVC
Duration : 23 min
Bit rate mode : Variable
Bit rate : 5 360 kb/s
Maximum bit rate : 8 040 kb/s
Width : 1 920 pixels
Height : 1 080 pixels
Display aspect ratio : 16:9
Frame rate mode : Constant
Frame rate : 23.976 (24000/1001) FPS
Color space : YUV
Chroma subsampling : 4:2:0
Bit depth : 8 bits
Scan type : Progressive
Bits/(Pixel*Frame) : 0.108
Stream size : 889 MiB (90%)
Writing library : x264 core 118
Encoding settings : cabac=1 / ref=3 / deblock=1:0:0 / analyse=0x1:0x111 / me=umh / subme=10 / psy=1 / psy_rd=1.00:0.00 / mixed_ref=1 / me_range=24 / chroma_me=1 / trellis=2 / 8x8dct=0 / cqm=0 / deadzone=21,11 / fast_pskip=1 / chroma_qp_offset=-2 / threads=6 / sliced_threads=0 / nr=0 / decimate=1 / interlaced=0 / bluray_compat=0 / constrained_intra=0 / bframes=2 / b_pyramid=0 / b_adapt=2 / b_bias=0 / direct=3 / weightb=1 / open_gop=0 / weightp=2 / keyint=48 / keyint_min=25 / scenecut=0 / intra_refresh=0 / rc_lookahead=0 / rc=2pass / mbtree=1 / bitrate=5360 / ratetol=1.0 / qcomp=0.50 / qpmin=6 / qpmax=51 / qpstep=4 / cplxblur=20.0 / qblur=0.5 / vbv_maxrate=8040 / vbv_bufsize=10720 / nal_hrd=vbr / ip_ratio=1.40 / aq=1:1.00
Default : Yes
Forced : No

Audio #1
ID : 2
Format : AC-3
Format/Info : Audio Coding 3
Mode extension : CM (complete main)
Format settings, Endianness : Big
Codec ID : A_AC3
Duration : 23 min
Bit rate mode : Constant
Bit rate : 192 kb/s
Channel(s) : 2 channels
Channel positions : Front: L R
Sampling rate : 48.0 kHz
Frame rate : 31.250 FPS (1536 spf)
Compression mode : Lossy
Stream size : 32.2 MiB (3%)
Title : DUB - CTC
Language : Russian
Default : Yes
Forced : No

Audio #2
ID : 3
Format : AC-3
Format/Info : Audio Coding 3
Mode extension : CM (complete main)
Format settings, Endianness : Big
Codec ID : A_AC3
Duration : 23 min
Bit rate mode : Constant
Bit rate : 384 kb/s
Channel(s) : 6 channels
Channel positions : Front: L C R, Side: L R, LFE
Sampling rate : 48.0 kHz
Frame rate : 31.250 FPS (1536 spf)
Compression mode : Lossy
Stream size : 64.4 MiB (7%)
Title : ENG
Language : English
Default : No
Forced : No

Text
ID : 4
Format : UTF-8
Codec ID : S_TEXT/UTF8
Codec ID/Info : UTF-8 Plain Text
Duration : 22 min
Bit rate : 79 b/s
Count of elements : 415
Stream size : 13.4 KiB (0%)
Title : Eng Sub
Language : English
Default : No
Forced : No


Трекер:  [ 23-Сен-2017 15:54 ]

  

Скачать .torrent

Размер .torrent файла 53 KB


Размер: 20.01 GB
Хэш (hash) релиза: 779510bac132161fb03142cd47955c83dafc945c
Подписка на обновления:

Еще никто не оставлял запись к записи скачать торрент Семейка Крудс. Начало Dawn of the Croods . Будь первым!

!Обратная связь