Скачать через торрент Южный Парк South Park Фильм бесплатно в хорошем качестве torrent

Скачивайте на UnionPeer.org фильмы через торрент без регистрации. Новинки кино в хорошем качестве через торрент. На UnionPeer.org можно скачать через торрент фильмы 2014 и 2015 годов. Самые новые фильмы.

Скачать торрент Южный Парк South Park бесплатно через .torrent фильм мультфильм сериал

Если у вас наблюдаются проблемы со скриншотами, переходом по ссылками, скачиванием торрентов - проблемы в блокировщике рекламы AdBlock. #хорошегоДня!


Статистика раздачи
Размер:  484 MB   |    Зарегистрирован:  1 месяц   |    .torrent скачан:  27 раз   |   
Раздают:  1  
   
Загрузка...
 
Автор Сообщение

Galfimbul

avatar Galfimbul


Южный Парк / South Park

Страна: США
Жанр: мультсериал, комедия, сатира
Продолжительность серии: ~ 00:22:00
Год выпуска: 2017
Перевод: Профессиональный (двухголосый закадровый) True Dubbing Studio по заказу Paramount Comedy
Русские субтитры: нет

Режиссёр: Трей Паркер, Мэтт Стоун, Эрик Сточ
Роли озвучивали: Трей Паркер, Мэтт Стоун, Мона Маршалл, Айзек Хейз, Эйприл Стюарт, Элиза Шнайдер, Мэри Кэй Бергман, Эдриан Бирд, Дженнифер Хауэлл, Кайл Маккаллок и др.

Описание: Южный Парк / South Park — американский мультсериал, созданный Мэттом Стоуном и Треем Паркером. Иногда название переводится также как «Саут-Парк» или «Саус-Парк». Выпускается кабельным телеканалом Comedy Central с 1997 года. Основу сюжета составляют приключения четырёх мальчиков и их друзей, живущих в маленьком городке Саут-Парк, штат Колорадо. Сериал высмеивает недостатки американской культуры и текущие мировые события, а также подвергает критике множество глубоких убеждений и табу посредством пародии и чёрного юмора. «Южный Парк» выходит поздно вечером и позиционируется как мультфильм для взрослых.

Ссылка на предыдущие и альтернативные раздачи:

Качество: WEB-DL 1080p
Формат: MKV
Видео: X264, 1920x1080 (16:9) , ~3000 kbps , 23.976 fps
Аудио: AC3, 48,0 КГц, 2 ch, 192 kbps - Rus
Аудио 2: EAC3, 48,0 КГц, 2 ch, 224 kbps - Eng
Субтитры: Английские
GeneralUnique ID : 253675155505942202556372501142343776929 (0xBED80ECCDF39D279AFF9A5B0C943FAA1)Complete name : E:\Torrent\South.Park.S21.1080p.AMZN.WEB-DL.H.264\South.Park.S21E01.White.People.Renovating.Houses.1080p.AMZN.WEB-DL.H.264.mkvFormat : MatroskaFormat version : Version 4 / Version 2File size : 484 MiBDuration : 22 min 10 sOverall bit rate mode : VariableOverall bit rate : 3 051 kb/sEncoded date : UTC 2017-09-22 09:32:31Writing application : mkvmerge v15.0.0 ('Duel with the Devil') 64-bitWriting library : libebml v1.3.5 + libmatroska v1.4.5Cover : YesAttachments : cover.south.jpg

VideoID : 1Format : AVCFormat/Info : Advanced Video CodecFormat profile : High@L4Format settings : CABAC / 4 Ref FramesFormat settings, CABAC : YesFormat settings, RefFrames : 4 framesCodec ID : V_MPEG4/ISO/AVCDuration : 22 min 10 sBit rate mode : VariableBit rate : 2 632 kb/sMaximum bit rate : 15.0 Mb/sWidth : 1 920 pixelsHeight : 1 080 pixelsDisplay aspect ratio : 16:9Frame rate mode : ConstantFrame rate : 23.976 (24000/1001) FPSColor space : YUVChroma subsampling : 4:2:0Bit depth : 8 bitsScan type : ProgressiveBits/(Pixel*Frame) : 0.053Stream size : 417 MiB (86%)Language : EnglishDefault : YesForced : NoColor range : LimitedColor primaries : BT.709Transfer characteristics : BT.709Matrix coefficients : BT.709

Audio #1ID : 2Format : AC-3Format/Info : Audio Coding 3Format settings, Endianness : BigCodec ID : A_AC3Duration : 22 min 10 sBit rate mode : ConstantBit rate : 192 kb/sChannel(s) : 2 channelsChannel positions : Front: L RSampling rate : 48.0 kHzFrame rate : 31.250 FPS (1536 SPF)Bit depth : 16 bitsCompression mode : LossyStream size : 30.4 MiB (6%)Language : RussianService kind : Complete MainDefault : YesForced : No

Audio #2ID : 3Format : E-AC-3Format/Info : Enhanced Audio Coding 3Format settings, Endianness : BigCodec ID : A_EAC3Duration : 22 min 10 sBit rate mode : ConstantBit rate : 224 kb/sChannel(s) : 2 channelsChannel positions : Front: L RSampling rate : 48.0 kHzFrame rate : 187.500 FPS (256 SPF)Compression mode : LossyStream size : 35.5 MiB (7%)Language : EnglishService kind : Complete MainDefault : NoForced : No

TextID : 4Format : UTF-8Codec ID : S_TEXT/UTF8Codec ID/Info : UTF-8 Plain TextDuration : 21 min 56 sBit rate : 101 b/sCount of elements : 499Stream size : 16.3 KiB (0%)Language : EnglishDefault : NoForced : No


Трекер:  [ 22-Сен-2017 12:54 ]

  

Скачать .torrent

Размер .torrent файла 19 KB


Размер: 484 MB
Хэш (hash) релиза: 9b19cd2d1e8104d195203ab60535da26125b1df1
Подписка на обновления:

Еще никто не оставлял запись к записи скачать торрент Южный Парк South Park . Будь первым!

!Обратная связь