Скачать через торрент Человек-паук Marvels Spider-Man Фильм бесплатно в хорошем качестве torrent

Скачивайте на UnionPeer.org фильмы через торрент без регистрации. Новинки кино в хорошем качестве через торрент. На UnionPeer.org можно скачать через торрент фильмы 2014 и 2015 годов. Самые новые фильмы.

Скачать торрент Человек-паук Marvels Spider-Man бесплатно через .torrent фильм мультфильм сериал

Если у вас наблюдаются проблемы со скриншотами, переходом по ссылками, скачиванием торрентов - проблемы в блокировщике рекламы AdBlock. #хорошегоДня!


Статистика раздачи
Размер:  901 MB   |    Зарегистрирован:  1 месяц   |    .torrent скачан:  12 раз   |   
Раздают:  1  
   
Загрузка...
 
Автор Сообщение

Galfimbul

avatar Galfimbul


Человек-паук / Marvel's Spider-Man

Страна: США
Жанр: Экшн, приключения, экранизация комиксов
Продолжительность серии: 00:22:07
Год выпуска: 2017
Перевод: Любительский (многоголосый закадровый) (BZEKE)
Русские субтитры: Yellow Tree

Режиссёр: Филип Пиньотти / Philip Pignotti
Роли озвучивали: Робби Дэймонд, Макс Миттелман, Мелани Миничино, Фред Татаскьор, Наджи Джетер, Нэнси Линари, Бен Дискин, Джейсон Спайсэк, Лора Бэйли, Джошуа Китон

Описание: Умный подросток по имени Питер Паркер укушен радиоактивным пауком в школьной поездке в Озкорп и получает суперсилы. Он становится героем по имени Человек-Паук после смерти своего дяди Бена, и он должен приспособиться к новому образу жизни.

Семпл

Качество: WEB-DL 1080p
Формат: MKV
Видео: MPEG4 Video (AVC) 1920x1080 23.976 fps ~5200 Kbps
Аудио 1: Русский, АС3, 2ch 192 kbps, 48kHz
Аудио 2: Английский, AC3 Dolby Digital, 6 ch, 384 kbps, 48 kHz
Субтитры: русские, английские
1 Школа Хорайзен Часть Первая
GeneralUnique ID : 237154455072725510523607864500709690261 (0xB26A4961B1A091B598C15209656B0B95)Complete name : D:\Downloads\Marvel's Spider man\Человек-Паук 4х01 Школа Хорайзен Часть Первая.mkvFormat : MatroskaFormat version : Version 4 / Version 2File size : 901 MiBDuration : 22 min 7 sOverall bit rate : 5 696 kb/sEncoded date : UTC 2017-09-21 21:41:45Writing application : mkvmerge v15.0.0 ('Duel with the Devil') 64-bitWriting library : libebml v1.3.5 + libmatroska v1.4.5

VideoID : 1Format : AVCFormat/Info : Advanced Video CodecFormat profile : High@L4Format settings : CABAC / 4 Ref FramesFormat settings, CABAC : YesFormat settings, RefFrames : 4 framesCodec ID : V_MPEG4/ISO/AVCDuration : 22 min 7 sBit rate : 5 118 kb/sWidth : 1 920 pixelsHeight : 1 080 pixelsDisplay aspect ratio : 16:9Frame rate mode : ConstantFrame rate : 23.976 (24000/1001) FPSColor space : YUVChroma subsampling : 4:2:0Bit depth : 8 bitsScan type : ProgressiveBits/(Pixel*Frame) : 0.103Stream size : 810 MiB (90%)Title : H.264Language : EnglishDefault : YesForced : NoColor range : LimitedColor primaries : BT.709Transfer characteristics : BT.709Matrix coefficients : BT.709

Audio #1ID : 2Format : AC-3Format/Info : Audio Coding 3Format settings, Endianness : BigCodec ID : A_AC3Duration : 22 min 7 sBit rate mode : ConstantBit rate : 192 kb/sChannel(s) : 2 channelsChannel positions : Front: L RSampling rate : 48.0 kHzFrame rate : 31.250 FPS (1536 SPF)Bit depth : 16 bitsCompression mode : LossyStream size : 30.4 MiB (3%)Language : RussianService kind : Complete MainDefault : YesForced : Yes

Audio #2ID : 3Format : AC-3Format/Info : Audio Coding 3Format settings, Endianness : BigCodec ID : A_AC3Duration : 22 min 7 sBit rate mode : ConstantBit rate : 384 kb/sChannel(s) : 6 channelsChannel positions : Front: L C R, Side: L R, LFESampling rate : 48.0 kHzFrame rate : 31.250 FPS (1536 SPF)Bit depth : 16 bitsCompression mode : LossyStream size : 60.8 MiB (7%)Title : DD5.1Language : EnglishService kind : Complete MainDefault : NoForced : No

Text #1ID : 4Format : UTF-8Codec ID : S_TEXT/UTF8Codec ID/Info : UTF-8 Plain TextDuration : 21 min 23 sBit rate : 165 b/sCount of elements : 381Stream size : 25.9 KiB (0%)Language : RussianDefault : YesForced : Yes

Text #2ID : 5Format : UTF-8Codec ID : S_TEXT/UTF8Codec ID/Info : UTF-8 Plain TextDuration : 21 min 35 sBit rate : 92 b/sCount of elements : 419Stream size : 14.7 KiB (0%)Title : CCLanguage : EnglishDefault : NoForced : No


Трекер:  [ 22-Сен-2017 03:24 ]

  

Скачать .torrent

Размер .torrent файла 18 KB


Размер: 901 MB
Хэш (hash) релиза: 0e2a646ff1bfbf97542f1f34088df133db17589b
Подписка на обновления:

Еще никто не оставлял запись к записи скачать торрент Человек-паук Marvels Spider-Man . Будь первым!

!Обратная связь