Скачать через торрент Лагерь Лагерь Camp Camp Фильм бесплатно в хорошем качестве torrent

Скачивайте на UnionPeer.org фильмы через торрент без регистрации. Новинки кино в хорошем качестве через торрент. На UnionPeer.org можно скачать через торрент фильмы 2014 и 2015 годов. Самые новые фильмы.

Скачать торрент Лагерь Лагерь Camp Camp бесплатно через .torrent фильм мультфильм сериал

Если у вас наблюдаются проблемы со скриншотами, переходом по ссылками, скачиванием торрентов - проблемы в блокировщике рекламы AdBlock. #хорошегоДня!


Статистика раздачи
Размер:  340 MB   |    Зарегистрирован:  1 месяц 1 день   |    .torrent скачан:  4 раза   |   
Раздают:  1  
   
Загрузка...
 
Автор Сообщение

Galfimbul

avatar Galfimbul


Лагерь Лагерь / Camp Camp

Страна: США
Жанр: Комедия, приключения
Год выпуска: 2017
Продолжительность: 00:13:25

Перевод: Двухголосый закадровый NewStation
Режиссер: Джордан Свиерз, Майлз Луна, Керри Шоукросс / Jordan Cwierz, Miles Luna, Kerry Shawcross
Субтитры: нет

В ролях: Майлз Луна, Майкл Джонс, Элизабет Максвелл

Описание: Трое детей: Макс, Нил и Никки, проводят летние каникулы в долбанутом лагере под названием «Лагерь-Кэмпбелла», которым заведуют двое вожатых : бесконечно веселый и радостный оптимист Дэвид и недовольная пессимистка Гвэн.

Доп. информация: В сериале присутствует ненормативная лексика.

Качество: WEBRip
Формат: MKV
Видео: AVC, 1920x1080, 16:9, 24,000 кадров/сек, ~1286 Кбит/сек
Аудио #1: [RUS] 48 kHz, AC-3, 2ch, 192 kbps
Аудио #2: [ENG] 44 kHz, AAC, 2ch, 126 kbps

Сэмпл
01 Поклонение / Cult Camp
02 Анти-Социальная Сеть / Anti-Social Network
<div class="sp-wrap">
<div class="sp-head folded">Скриншоты</div>
<div class="sp-body"> </div>
</div>
General
Unique ID : 234381301207669234615174206214011681738 (0xB0543257003F85CA9AFF81422450FBCA)
Complete name : E:\NewStation\Camp.Camp.s02.WEBRip.1080p.NewStation\Camp.Camp.s02e02.WEBRip.1080p.NewStation.mkv
Format : Matroska
Format version : Version 4 / Version 2
File size : 160 MiB
Duration : 13 min 25 s
Overall bit rate : 1 669 kb/s
Encoded date : UTC 2017-09-21 17:47:00
Writing application : mkvmerge v13.0.0 ('The Juggler') 64bit
Writing library : libebml v1.3.4 + libmatroska v1.4.5

Video
ID : 1
Format : AVC
Format/Info : Advanced Video Codec
Format profile : High@L4
Format settings, CABAC : Yes
Format settings, RefFrames : 3 frames
Codec ID : V_MPEG4/ISO/AVC
Duration : 13 min 25 s
Bit rate : 1 286 kb/s
Width : 1 920 pixels
Height : 1 080 pixels
Display aspect ratio : 16:9
Frame rate mode : Constant
Frame rate : 24.000 FPS
Color space : YUV
Chroma subsampling : 4:2:0
Bit depth : 8 bits
Scan type : Progressive
Bits/(Pixel*Frame) : 0.026
Stream size : 123 MiB (77%)
Default : Yes
Forced : No
Color range : Limited
Color primaries : BT.709
Transfer characteristics : BT.709
Matrix coefficients : BT.709

Audio #1
ID : 2
Format : AC-3
Format/Info : Audio Coding 3
Format settings, Endianness : Big
Codec ID : A_AC3
Duration : 13 min 25 s
Bit rate mode : Constant
Bit rate : 256 kb/s
Channel(s) : 2 channels
Channel positions : Front: L R
Sampling rate : 48.0 kHz
Frame rate : 31.250 FPS (1536 SPF)
Bit depth : 16 bits
Compression mode : Lossy
Stream size : 24.6 MiB (15%)
Title : Rus NewStation
Language : Russian
Service kind : Complete Main
Default : Yes
Forced : No

Audio #2
ID : 3
Format : AAC
Format/Info : Advanced Audio Codec
Format profile : LC
Codec ID : A_AAC
Duration : 13 min 25 s
Bit rate : 126 kb/s
Channel(s) : 2 channels
Channel positions : Front: L R
Sampling rate : 44.1 kHz
Frame rate : 43.066 FPS (1024 SPF)
Compression mode : Lossy
Stream size : 12.1 MiB (8%)
Title : Original
Default : No
Forced : No
Внимание! Раздача ведётся путём добавления новых серий; при каждом добавлении создаётся новый торрент. Чтобы начать докачку новой серии, пользователям необходимо сделать следующее:
(1) остановить скачивание,
(2) удалить старый торрент у себя из клиента (старые серии удалять не надо),
(3) скачать новый торрент и запустить его у себя в клиенте вместо старого, при этом указать клиенту путь в старую папку куда и должно происходить скачивание новых серий.

Ваш клиент при этом должен произвести хеширование (проверку) старой папки (если не производит сам - помогите ему сделать это), и будет докачивать только те серии которых у вас ещё нет. Старые серии при этом не удаляются, а продолжают раздаваться!

Eсли вы уже удалили старые серии, то предотвратить повторную закачку старых серий можно, отжав галочку в соответствующих местах при запуске нового торрента. По возможности, желательно не удалять старые серии как можно дольше чтобы релизёр не столько продолжал раздавать старые серии, а смог сконцентрироваться на новых.


Трекер:  [ 21-Сен-2017 21:24 ]

  

Скачать .torrent

Размер .torrent файла 14 KB


Размер: 340 MB
Хэш (hash) релиза: 0a2ecb71985b49880ce35d6db1871525678e5910
Подписка на обновления:

Еще никто не оставлял запись к записи скачать торрент Лагерь Лагерь Camp Camp . Будь первым!

!Обратная связь