Скачать через торрент Новые приключения Винни Пуха The New Adventures of Winnie the Pooh Фильм бесплатно в хорошем качестве torrent

Скачивайте на UnionPeer.org фильмы через торрент без регистрации. Новинки кино в хорошем качестве через торрент. На UnionPeer.org можно скачать через торрент фильмы 2014 и 2015 годов. Самые новые фильмы.

Скачать торрент Новые приключения Винни Пуха The New Adventures of Winnie the Pooh бесплатно через .torrent фильм мультфильм сериал

Если у вас наблюдаются проблемы со скриншотами, переходом по ссылками, скачиванием торрентов - проблемы в блокировщике рекламы AdBlock. #хорошегоДня!


Статистика раздачи
Размер:  6.68 GB   |    Зарегистрирован:  1 месяц 1 день   |    .torrent скачан:  11 раз   |   
Раздают:  1  
   
Загрузка...
 
Автор Сообщение

Galfimbul

avatar Galfimbul


Новые приключения Винни Пуха / The New Adventures of Winnie the Pooh

Страна: США
Жанр: мультфильм, комедия, семейный
Продолжительность: ~00:22:00
Год выпуска: 1988-1991
Перевод: Профессиональный (дублированный)
Русские субтитры: нет

Режиссёр: Карл Джеерс, Теренс Харрисон, Кен Кессел
Роли озвучивали: Джон Фидлер, Джим Каммингс, Кен Сэнсом, Пол Уинчелл, Майкл Гоф, Питер Каллен, Хэл Смит, Тим Хоскинс, Патриция Паррис, Николас Мелоди, Чак МакКанн, Лаура Муни, Трэйси Роу, Джеки Гонно, Хэмилтон Кэмп

Описание: «Новые приключения Винни Пуха» – это мультсериал, с которым знакомы многие зрители по всему миру. Красочный мультипликационный фильм создан компанией Уолта Диснея. В центре сюжета компания друзей, во главе которой непревзойденный Винни Пух. Этот забавный, милый и смешной медвежонок в свое время покорил множество детских сердец. Многие мечтали иметь у себя такого же медведя. Он добрый, но, как и большинство добряков – наивный. Винни просто притягивает к себе неприятности, но с помощью верных товарищей всегда с ними справляется. Экранизация произведений Алана Александра Милна.

Список серий:
01. Винни звезда экрана
02. Друг познаётся в еде / День в ослиной шкуре
03. В походе хорошо, а дома лучше / Злоключение воздушного шарика
04. Где найдёшь, где потеряешь
05. Из поросёнка в короли
06. Как приятно быть опрятным
07. Мёдограбление века
08. Полоски / Обезьяне равных нет
09. Нянин блюз
10. Почём тот кролик на витрине ?

Семпл: http://sendfile.su/1363115

Качество: WEB-DL 1080p
Формат: MKV
Видео: 1920x1080, 25.000 fps, x264, ~4000 Kbps
Аудио 1: Русский, 48.0 KHz, AC3, 2 ch, 192 Kbps
Аудио 2: Английский, 48.0 KHz, AAC, 2 ch, 192 Kbps
Субтитры: Нет
GeneralUnique ID : 173057195198036253175445761627290069919 (0x82319A7A8AFC81E3A7AE4831DE9BEB9F)Complete name : K:\The.New.Adventures.of.Winnie.the.Pooh (1080p)\Season 1\01. Pooh Oughta Be In Pictures.mkvFormat : MatroskaFormat version : Version 4 / Version 2File size : 681 MiBDuration : 21 min 45 sOverall bit rate : 4 376 kb/sEncoded date : UTC 2017-09-20 11:14:32Writing application : mkvmerge v15.0.0 ('Duel with the Devil') 64-bitWriting library : libebml v1.3.5 + libmatroska v1.4.5

VideoID : 1Format : AVCFormat/Info : Advanced Video CodecFormat profile : High@L4Format settings, CABAC : YesFormat settings, RefFrames : 3 framesCodec ID : V_MPEG4/ISO/AVCDuration : 21 min 45 sBit rate : 4 000 kb/sWidth : 1 920 pixelsHeight : 1 080 pixelsDisplay aspect ratio : 16:9Frame rate mode : ConstantFrame rate : 25.000 FPSColor space : YUVChroma subsampling : 4:2:0Bit depth : 8 bitsScan type : ProgressiveBits/(Pixel*Frame) : 0.077Stream size : 621 MiB (91%)Writing library : x264 core 142 r2389 956c8d8Encoding settings : cabac=1 / ref=3 / deblock=1:0:0 / analyse=0x3:0x133 / me=umh / subme=7 / psy=1 / psy_rd=1.00:0.00 / mixed_ref=1 / me_range=32 / chroma_me=1 / trellis=2 / 8x8dct=1 / cqm=0 / deadzone=21,11 / fast_pskip=1 / chroma_qp_offset=-2 / threads=6 / lookahead_threads=1 / sliced_threads=0 / nr=0 / decimate=1 / interlaced=0 / bluray_compat=0 / constrained_intra=0 / bframes=0 / weightp=0 / keyint=75 / keyint_min=26 / scenecut=40 / intra_refresh=0 / rc_lookahead=50 / rc=2pass / mbtree=0 / bitrate=4000 / ratetol=1.0 / qcomp=0.20 / qpmin=10 / qpmax=51 / qpstep=4 / cplxblur=20.0 / qblur=0.5 / vbv_maxrate=5000 / vbv_bufsize=5000 / nal_hrd=none / filler=0 / ip_ratio=1.40 / aq=1:1.00Language : RussianDefault : YesForced : NoColor range : LimitedColor primaries : BT.709Transfer characteristics : BT.709Matrix coefficients : BT.709

Audio #1ID : 2Format : AC-3Format/Info : Audio Coding 3Format settings, Endianness : BigCodec ID : A_AC3Duration : 21 min 9 sBit rate mode : ConstantBit rate : 192 kb/sChannel(s) : 2 channelsChannel positions : Front: L RSampling rate : 48.0 kHzFrame rate : 31.250 FPS (1536 SPF)Bit depth : 16 bitsCompression mode : LossyDelay relative to video : 600 msStream size : 29.1 MiB (4%)Language : RussianService kind : Complete MainDefault : YesForced : No

Audio #2ID : 3Format : AACFormat/Info : Advanced Audio CodecFormat profile : LCCodec ID : A_AACDuration : 21 min 44 sBit rate : 192 kb/sChannel(s) : 2 channelsChannel positions : Front: L RSampling rate : 44.1 kHzFrame rate : 43.066 FPS (1024 SPF)Compression mode : LossyStream size : 29.9 MiB (4%)Language : EnglishDefault : NoForced : No


Трекер:  [ 21-Сен-2017 14:24 ]

  

Скачать .torrent

Размер .torrent файла 34 KB


Размер: 6.68 GB
Хэш (hash) релиза: df7e597b865dbc94177a38efd43e1976e28d7bdb
Подписка на обновления:

Торренты, похожие на Новые приключения Винни Пуха The New Adventures of Winnie the Pooh скачать торрент

Форум Название Автор Размер S L Добавлен
Мультсериалы ·· Новые приключения Винни Пуха / The New Adventures of Winnie the Pooh / Сезон: 2 / Серии: 1-10 из 10 (Теренс Харрисон / Terence Harrison) [1989, США, мультфильм, комедия, семейный, WEBRip 1080p] 2xDub (Нота, Невафильм) + Original + Sub Galfimbul 77668310197.23 GB 0 0 1507228381

21:33

5-Окт-17

Еще никто не оставлял запись к записи скачать торрент Новые приключения Винни Пуха The New Adventures of Winnie the Pooh . Будь первым!

!Обратная связь