Скачать через торрент С значит Семья F is For Family Фильм бесплатно в хорошем качестве torrent

Скачивайте на UnionPeer.org фильмы через торрент без регистрации. Новинки кино в хорошем качестве через торрент. На UnionPeer.org можно скачать через торрент фильмы 2014 и 2015 годов. Самые новые фильмы.

Скачать торрент С значит Семья F is For Family бесплатно через .torrent фильм мультфильм сериал

Если у вас наблюдаются проблемы со скриншотами, переходом по ссылками, скачиванием торрентов - проблемы в блокировщике рекламы AdBlock. #хорошегоДня!


Статистика раздачи
Размер:  3.96 GB   |    Зарегистрирован:  1 месяц 1 день   |    .torrent скачан:  9 раз   |   
Раздают:  1  
   
Загрузка...
 
Автор Сообщение

Galfimbul

avatar Galfimbul


С Значит Семья
F is for FamilyСезон 1Серии: 1-6 из 6
Страна: США
Производство: Netflix
Жанр: Мультфильм, драма, комедия, сатира
Продолжительность: ~00:26:00
Год выпуска: 2015
Перевод:

Профессиональный (многоголосый закадровый) | Jaskier
Оригинальная звуковая дорожка (English)

Русские субтитры: нет
Английские субтитры: естьРежиссёр: Лоран НиколасКто не знает Билли Бёрра? Его знают многие. А вот знакомы ли вы с мультфильмом, в основу которого положены его юмористические выступления перед живой публикой. «С значит Семья» - мультипликационные юмористический сериал. Он основан на ностальгических воспоминаниях о семидесятых годах двадцатого века. Те времена известны тем, что оружие носили все и стар и млад, а курить разрешалось не только дома, но и в общественных местах. Рассказ пойдет об одной семейке, которая относится к бедному слою общества. Фрэдди – глава семейства, который выкидывает массу фортелей. И от них страдают и жена, и его дети. Он такой человек, с которым скучать не придется. Он из одной крайности бросается в другую, и все кто это увидит, удержаться от смеха просто не смогут. Все раздачи мультсериалаКачество: BDRip 720p (by DEFLATE)
Формат: MKV
Видео: 1280x720 (16:9) at 24 fps, High@L4.1, ~2600 kbps avg, ~0.120bpp
Аудио:

Russian: 48 kHz, AC3 Dolby Digital, 2.0 ch, ~192 kbps | Студия Jaskier [без рекламы]
English: 48 kHz, AC3 Dolby Digital, 5.1 ch, ~640 kbps

Субтитры: English (*.srt)
GeneralUnique ID : 195938457362682075172980786629196630482 (0x93685FCD7BD6A786823ED81A13C7C9D2)Complete name : C:\F is for Family - Season 1\F.is.for.Family.S01E02.Saturday.Bloody.Saturday.720p.BluRay.DD5.1.x264-Jaskier.mkvFormat : MatroskaFormat version : Version 4 / Version 2File size : 677 MiBDuration : 27 min 3 sOverall bit rate : 3 499 kb/sMovie name : Saturday Bloody SaturdayEncoded date : UTC 2017-09-21 10:34:40Writing application : mkvmerge v15.0.0 ('Duel with the Devil') 64-bitWriting library : libebml v1.3.5 + libmatroska v1.4.5Attachments : Poster.jpg

VideoID : 1Format : AVCFormat/Info : Advanced Video CodecFormat profile : High@L4.1Format settings, CABAC : YesFormat settings, ReFrames : 9 framesCodec ID : V_MPEG4/ISO/AVCDuration : 27 min 3 sBit rate : 2 664 kb/sWidth : 1 280 pixelsHeight : 720 pixelsDisplay aspect ratio : 16:9Frame rate mode : ConstantFrame rate : 24.000 FPSColor space : YUVChroma subsampling : 4:2:0Bit depth : 8 bitsScan type : ProgressiveBits/(Pixel*Frame) : 0.120Stream size : 516 MiB (76%)Writing library : x264 core 148 r2762+10 5d7902f / tmod 5d7902f X86_64Encoding settings : cabac=1 / ref=9 / deblock=1:-3:-3 / analyse=0x3:0x113 / me=umh / subme=10 / psy=1 / fade_compensate=0.00 / psy_rd=1.05:0.15 / mixed_ref=1 / me_range=48 / chroma_me=1 / trellis=2 / 8x8dct=1 / cqm=0 / deadzone=21,11 / fast_pskip=0 / chroma_qp_offset=-3 / threads=12 / lookahead_threads=2 / sliced_threads=0 / nr=0 / decimate=0 / interlaced=0 / bluray_compat=0 / constrained_intra=0 / fgo=0 / bframes=9 / b_pyramid=2 / b_adapt=2 / b_bias=0 / direct=3 / weightb=1 / open_gop=0 / weightp=2 / keyint=250 / keyint_min=24 / scenecut=40 / intra_refresh=0 / rc=2pass / mbtree=0 / bitrate=2664 / ratetol=1.0 / qcomp=0.60 / qpmin=0:0:0 / qpmax=69:69:69 / qpstep=4 / cplxblur=20.0 / qblur=0.5 / ip_ratio=1.40 / pb_ratio=1.30 / aq=3:0.80 / aq-sensitivity=10.00 / aq-factor=1.00:1.00:1.00 / aq2=0 / aq3=0Language : EnglishDefault : YesForced : No

Audio #1ID : 2Format : AC-3Format/Info : Audio Coding 3Mode extension : CM (complete main)Format settings, Endianness : BigCodec ID : A_AC3Duration : 27 min 3 sBit rate mode : ConstantBit rate : 192 kb/sChannel(s) : 2 channelsChannel positions : Front: L RSampling rate : 48.0 kHzFrame rate : 31.250 FPS (1536 spf)Bit depth : 16 bitsCompression mode : LossyStream size : 37.2 MiB (5%)Title : MVO JaskierLanguage : RussianDefault : YesForced : No

Audio #2ID : 3Format : AC-3Format/Info : Audio Coding 3Mode extension : CM (complete main)Format settings, Endianness : BigCodec ID : A_AC3Duration : 27 min 3 sBit rate mode : ConstantBit rate : 640 kb/sChannel(s) : 6 channelsChannel positions : Front: L C R, Side: L R, LFESampling rate : 48.0 kHzFrame rate : 31.250 FPS (1536 spf)Bit depth : 16 bitsCompression mode : LossyStream size : 124 MiB (18%)Title : OriginalLanguage : EnglishDefault : NoForced : No

TextID : 4Format : UTF-8Codec ID : S_TEXT/UTF8Codec ID/Info : UTF-8 Plain TextDuration : 26 min 44 sBit rate : 97 b/sCount of elements : 514Stream size : 19.1 KiB (0%)Title : OriginalLanguage : EnglishDefault : NoForced : No

Menu00:00:05.000 : en:00:00:05.00000:05:10.167 : en:00:05:10.167
(Полноразмерные скриншоты открываются кликом по миниатюре)
The Bleedin' in Sweden
Saturday Bloody Saturday
The Trough
'F' Is for Halloween
Bill Murphy's Day Off
O Holy Moly Night
<img class="smile" src="//static.t-ru.org/smiles/icon_exclaim.gif" alt=""> Внимание! В сериале присутствует ненормативная лексика! 18+ <img class="smile" src="//static.t-ru.org/smiles/icon_exclaim.gif" alt="">

Трекер:  [ 21-Сен-2017 13:54 ]

  

Скачать .torrent

Размер .torrent файла 21 KB


Размер: 3.96 GB
Хэш (hash) релиза: 72a67ec658482b8325df955486239515f198ec9b
Подписка на обновления:

Еще никто не оставлял запись к записи скачать торрент С значит Семья F is For Family . Будь первым!

!Обратная связь