Скачать через торрент Рапунцель: Новая история Tangled: The Series Фильм бесплатно в хорошем качестве torrent

Скачивайте на UnionPeer.org фильмы через торрент без регистрации. Новинки кино в хорошем качестве через торрент. На UnionPeer.org можно скачать через торрент фильмы 2014 и 2015 годов. Самые новые фильмы.

Скачать торрент Рапунцель: Новая история Tangled: The Series бесплатно через .torrent фильм мультфильм сериал

Если у вас наблюдаются проблемы со скриншотами, переходом по ссылками, скачиванием торрентов - проблемы в блокировщике рекламы AdBlock. #хорошегоДня!


Статистика раздачи
Размер:  404 MB   |    Зарегистрирован:  1 месяц 4 дня   |    .torrent скачан:  9 раз   |   
Раздают:  1  
   
Загрузка...
 
Автор Сообщение

Galfimbul

avatar Galfimbul


Рапунцель: Новая история / Tangled: The Series
Год выпуска: 2017
Страна: США, 9 Story Media Group, Disney Television Animation
Жанр: мультсериал, детский, семейный, приключения
Продолжительность: 00:21:00
Перевод: Профессиональный (дублированный)
Русские субтитры: нет

Режиссёр: Shane Prigmore / Шэйн Пригмор, Chris Sonnenburg / Крис СоннербергОписание: В центре сюжета - продолжение приключений Рапунцель и ее друзей. Прошло полгода с тех пор, как девушка вернулась домой и вновь обрела своих родителей. Совсем скоро должна состояться ее коронация. Пока все во дворце готовятся к пышному торжеству, Рапунцель нужно усвоить множество жизненных уроков и разобраться с новыми для нее обязанностями Принцессы. Помогать Рапунцель в этом нелёгком деле будут верные друзья: фрейлина Кассандра, возлюбленный Юджин, конь Максимус и хамелеон Паскаль ...
1 серия. Ветер в моих волосах / What the Hair!?
<div class="sp-wrap">
<div class="sp-head folded">скрытый текст</div>
<div class="sp-body">https://en.wikipedia.org/wiki/Tangled:_The_Series#Season_1_.282017.29
</div>
</div>
Доп. информация:



Семпл: https://yadi.sk/d/kZZORA543MzXXz

Релиз группы: Качество видео: DVB
Формат видео: MPEG-TS

Видео: MPEG4 Video (H264), 720x576@785x576 (4:3), анаморф, 25 fps, 2300 kbps
Аудио: MPEG Audio, 2 сh, 48 kHz, 192 kbps <img class="smile" src="//static.t-ru.org/smiles/icon_arrow.gif" alt=""> Все раздачи мультсериала <img class="smile" src="//static.t-ru.org/smiles/icon_arrow2.gif" alt="">
G:\Рапунцель. Новая история. (2017)_DVB by SLuMeP\01с. What the Hair.ts
General #1
ID : 1 (0x1)
Complete name : G:\Рапунцель. Новая история. (2017)_DVB by SLuMeP\01с. What the Hair.ts
Format : MPEG-TS
File size : 404 MiB
Duration : 21mn 36s
Overall bit rate mode : Variable
Overall bit rate : 2 617 Kbps

Video #2694
ID : 2694 (0xA86)
Menu ID : 694 (0x2B6)
Format : AVC
Format/Info : Advanced Video Codec
Format profile : Main@L3.0
Format settings, CABAC : Yes
Format settings, ReFrames : 4 frames
Codec ID : 27
Duration : 21mn 36s
Bit rate : 2 294 Kbps
Width : 720 pixels
Height : 576 pixels
Display aspect ratio : 4:3
Frame rate : 25.000 fps
Standard : PAL
Color space : YUV
Chroma subsampling : 4:2:0
Bit depth : 8 bits
Scan type : MBAFF
Scan order : Top Field First
Bits/(Pixel*Frame) : 0.221
Stream size : 354 MiB (88%)
Color primaries : BT.601 PAL
Transfer characteristics : BT.470 System B, BT.470 System G
Matrix coefficients : BT.601

Audio #3694
ID : 3694 (0xE6E)
Menu ID : 694 (0x2B6)
Format : MPEG Audio
Format version : Version 1
Format profile : Layer 2
Codec ID : 3
Duration : 21mn 36s
Bit rate mode : Constant
Bit rate : 192 Kbps
Channel(s) : 2 channels
Sampling rate : 48.0 KHz
Compression mode : Lossy
Stream size : 29.7 MiB (7%)
Language : Russian
Чтобы начать докачку новой серии, пользователям необходимо сделать следующее:
(1) остановить скачивание,
(2) удалить старый торрент у себя из клиента (старые серии удалять не надо),
(3) скачать новый торрент и запустить его у себя в клиенте вместо старого, при этом указать клиенту путь в старую папку куда и должно происходить скачивание новых серий.
Ваш клиент при этом должен произвести хеширование (проверку) старой папки (если не производит сам - помогите ему сделать это), и будет докачивать только те серии которых у вас ещё нет. Старые серии при этом не удаляются, а продолжают раздаваться!
Eсли вы уже удалили старые серии, то предотвратить повторную закачку старых серий можно, отжав галочку в соответсвующих местах при запуске нового торрента. По возможности, желательно не удалять старые серии как можно дольше чтобы релизёр не столько продолжал раздавать старые серии, а смог сконцентрироваться на новых.
Добавлена 1 серия.

PS. перекачайте торрент-файл !

Трекер:  [ 18-Сен-2017 21:24 ]

  

Скачать .torrent

Размер .torrent файла 16 KB


Размер: 404 MB
Хэш (hash) релиза: 7d331b2d47cda24b8a8b0baffd9eca417718aa3a
Подписка на обновления:

Еще никто не оставлял запись к записи скачать торрент Рапунцель: Новая история Tangled: The Series . Будь первым!

!Обратная связь