Скачать через торрент Стрипперелла Stripperella Фильм бесплатно в хорошем качестве torrent

Скачивайте на UnionPeer.org фильмы через торрент без регистрации. Новинки кино в хорошем качестве через торрент. На UnionPeer.org можно скачать через торрент фильмы 2014 и 2015 годов. Самые новые фильмы.

Скачать торрент Стрипперелла Stripperella бесплатно через .torrent фильм мультфильм сериал

Если у вас наблюдаются проблемы со скриншотами, переходом по ссылками, скачиванием торрентов - проблемы в блокировщике рекламы AdBlock. #хорошегоДня!


Статистика раздачи
Размер:  3.01 GB   |    Зарегистрирован:  1 месяц 4 дня   |    .torrent скачан:  16 раз   |   
Раздают:  1  
   
Загрузка...
 
Автор Сообщение

Galfimbul

avatar Galfimbul


Стрипперелла / Stripperella
Год выпуска: 2003-2004
Страна: США
Студия: The Firm, Network Enterprises, Spike Animation Studios
Жанр: Экшн, Комедия, Эротика
Продолжительность: ~ 20 минут серия
Перевод: Профессиональный (двухголосый) MTV

Режиссер: Девид Хоган / David Hogan
Роли озвучивали: Памела Андерсон, Джо Лорен Адамс, Марк Хэмилл, Томас Ф. Вилсон, Ди Брэдли Бейкер, Джон Крайер, Сирена Ирвин, Том Кенни, Кид Рок, Морис Ламарш, Винс МакМахон, Джилл ТэллиСтрипперелла - американский телевизионный мультсериал, ориентированный на взрослую аудиторию. Создан Стэном Ли. Главный персонаж, озвученный и основанный на образе Памелы Андерсон, - стриптизёрша по имени Эротика Джонс, которая также является супергероиней/секретным агентом Стриппереллой. В Соединённых Штатах сериалу был присвоен рейтинг TV—MA (не рекомендовано детям до 17).
По сюжету в первую очередь - пародия, в которой гротескно преувеличены классические, архаичные штампы типа «эффектная блондинка, побеждающая зло», «супермен, о тайной жизни которого никто не догадывается» и т. п.Релиз группы: Доп. информация: Большое Спасибо Messeer за русские аудиодорожки.
Начиная с 7-й серии анимация заметно меняется.1. Beauty and the Obese: Part 1 / Красавица и Целлюлит: Часть 1
2. Beauty and the Obese: Part 2 / Красавица и Целлюлит: Часть 2
3. Crime Doesn't Pay... Seriously, It Doesn't / Преступления не Окупаются...Честно-Честно
4. Everybody Loves Pushy / Все Любят Барыгу
5. The Wrath of Klinko / Клинко в Гневе
6. You Only Lick Twice / Лизнешь Лишь Дважды
7. The Bridesmaid / Подружка Невесты
8. Evil Things Come in Small Packages / Маленькие Большие Неприятности
9. Eruption Junction, What's Your Function? / Извержение Вулкана
10. The Evil Magicians / Фокусники Злодеи
11. Cheapo by the Dozen / Дешевый Понт
12. The Return of the Queen / Возвращение Королевы
13. The Curse of the WereBeaver / Проклятие Бобра-ОборотняКачество: DVDRip-AVC
Формат: MKV
Видео: 716x348 (1,85:1), 23,976 fps, ~1200 kbps
Аудио 1: Русский, AC3 Dolby Digital, 2 ch, 192 kbps, 48 kHz
Аудио 2: Английский, AС3, 2ch, 192 kbps, 48 kHz

Сэмпл
<div class="sp-wrap">
<div class="sp-head folded">Скриншоты</div>
<div class="sp-body">
</div>
</div>
Общее
Уникальный идентификатор : 243614975058203606228246900062827176416 (0xB746899BFF376AF79D1140439AA5E1E0)
Полное имя : C:\Раздачи\Stripperella.S01.2003-2004.x264.DVDRip-SergeZuich\01. Beauty and the Obese (part 1).mkv
Формат : Matroska
Версия формата : Version 4 / Version 2
Размер файла : 229 Мбайт
Продолжительность : 19 м. 53 с.
Общий поток : 1607 Кбит/сек
Дата кодирования : UTC 2017-07-02 09:03:50
Программа кодирования : mkvmerge v8.3.0 ('Over the Horizon') 64bit
Библиотека кодирования : libebml v1.3.1 + libmatroska v1.4.2

Видео
Идентификатор : 1
Формат : AVC
Формат/Информация : Advanced Video Codec
Профиль формата : High@L3.1
Параметр CABAC формата : Да
Параметр ReFrames формата : 9 кадров
Идентификатор кодека : V_MPEG4/ISO/AVC
Продолжительность : 19 м. 53 с.
Битрейт : 1221 Кбит/сек
Ширина : 716 пикселей
Высота : 348 пикселей
Соотношение сторон : 1,85:1
Соотношение сторон в оригинале : 1,85:1
Режим частоты кадров : Постоянный
Частота кадров : 23,976 (24000/1001) кадра/сек
Цветовое пространство : YUV
Субдискретизация насыщенности : 4:2:0
Битовая глубина : 8 бит
Тип развёртки : Прогрессивная
Бит/(Пиксели*Кадры) : 0.204
Размер потока : 174 Мбайт (76%)
Заголовок : Beauty and the Obese (part 1)
Библиотека кодирования : x264 core 130 r2273 b3065e6
Настройки программы : cabac=1 / ref=9 / deblock=1:-3:-3 / analyse=0x3:0x133 / me=umh / subme=11 / psy=1 / psy_rd=1.00:0.00 / mixed_ref=1 / me_range=24 / chroma_me=1 / trellis=2 / 8x8dct=1 / cqm=0 / deadzone=21,11 / fast_pskip=0 / chroma_qp_offset=-2 / threads=12 / lookahead_threads=2 / sliced_threads=0 / nr=0 / decimate=1 / interlaced=0 / bluray_compat=0 / constrained_intra=0 / bframes=8 / b_pyramid=2 / b_adapt=2 / b_bias=0 / direct=3 / weightb=1 / open_gop=0 / weightp=2 / keyint=240 / keyint_min=24 / scenecut=40 / intra_refresh=0 / rc_lookahead=50 / rc=crf / mbtree=1 / crf=18.0 / qcomp=0.60 / qpmin=0 / qpmax=69 / qpstep=4 / ip_ratio=1.40 / aq=1:1.20
Default : Да
Forced : Нет
Цветовой диапазон : Limited
Основные цвета : BT.601 NTSC
Характеристики трансфера : BT.709
Коэффициенты матрицы : BT.601

Аудио #1
Идентификатор : 2
Формат : AC-3
Формат/Информация : Audio Coding 3
Профиль формата : Dolby Digital
Расширение режима : CM (complete main)
Параметр Endianness формата : Big
Идентификатор кодека : A_AC3
Продолжительность : 19 м. 53 с.
Вид битрейта : Постоянный
Битрейт : 192 Кбит/сек
Каналы : 2 канала
Расположение каналов : Front: L R
Частота : 48,0 КГц
Частота кадров : 31,250 кадров/сек (1536 spf)
Метод сжатия : С потерями
Размер потока : 27,3 Мбайт (12%)
Заголовок : DVO [MTV] - AC3 Dolby Digital, 2ch, 192 kbps, 48 kHz
Язык : Russian
Default : Да
Forced : Нет

Аудио #2
Идентификатор : 3
Формат : AC-3
Формат/Информация : Audio Coding 3
Расширение режима : CM (complete main)
Параметр Endianness формата : Big
Идентификатор кодека : A_AC3
Продолжительность : 19 м. 53 с.
Вид битрейта : Постоянный
Битрейт : 192 Кбит/сек
Каналы : 2 канала
Расположение каналов : Front: L R
Частота : 48,0 КГц
Частота кадров : 31,250 кадров/сек (1536 spf)
Метод сжатия : С потерями
Размер потока : 27,3 Мбайт (12%)
Заголовок : Original - - AC3 Dolby Digital, 2ch, 192 kbps, 48 kHz
Язык : English
Default : Нет
Forced : Нет


Трекер:  [ 18-Сен-2017 18:24 ]

  

Скачать .torrent

Размер .torrent файла 16 KB


Размер: 3.01 GB
Хэш (hash) релиза: 051a327c0a8199c52f569bb462a5357105f2c011
Подписка на обновления:

Еще никто не оставлял запись к записи скачать торрент Стрипперелла Stripperella . Будь первым!

!Обратная связь