Скачать через торрент С значит Семья F is For Family Фильм бесплатно в хорошем качестве torrent

Скачивайте на UnionPeer.org фильмы через торрент без регистрации. Новинки кино в хорошем качестве через торрент. На UnionPeer.org можно скачать через торрент фильмы 2014 и 2015 годов. Самые новые фильмы.

Скачать торрент С значит Семья F is For Family бесплатно через .torrent фильм мультфильм сериал

Если у вас наблюдаются проблемы со скриншотами, переходом по ссылками, скачиванием торрентов - проблемы в блокировщике рекламы AdBlock. #хорошегоДня!


Статистика раздачи
Размер:  4.79 GB   |    Зарегистрирован:  1 месяц 4 дня   |    .torrent скачан:  8 раз   |   
Раздают:  1  
   
Загрузка...
 
Автор Сообщение

Galfimbul

avatar Galfimbul


С Значит Семья
F is for FamilyСезон 1Серии: 1-6 из 6
Страна: США
Производство: Netflix
Жанр: Мультфильм, драма, комедия, сатира
Продолжительность: ~00:26:00
Год выпуска: 2015
Перевод:

Профессиональный (многоголосый закадровый) | Jaskier
Оригинальная звуковая дорожка (English)

Русские субтитры: нет
Английские субтитры: естьРежиссёр: Лоран НиколасКто не знает Билли Бёрра? Его знают многие. А вот знакомы ли вы с мультфильмом, в основу которого положены его юмористические выступления перед живой публикой. «С значит Семья» - мультипликационные юмористический сериал. Он основан на ностальгических воспоминаниях о семидесятых годах двадцатого века. Те времена известны тем, что оружие носили все и стар и млад, а курить разрешалось не только дома, но и в общественных местах. Рассказ пойдет об одной семейке, которая относится к бедному слою общества. Фрэдди – глава семейства, который выкидывает массу фортелей. И от них страдают и жена, и его дети. Он такой человек, с которым скучать не придется. Он из одной крайности бросается в другую, и все кто это увидит, удержаться от смеха просто не смогут. Все раздачи мультсериалаКачество: WEBRip 1080p (CtrlHD)
Формат: MKV
Видео: 1920x1080 (16:9) at 23.976 fps, Main@L4, ~4500 kbps avg, ~0.070bpp
Аудио:

Russian: 48 kHz, AC3 Dolby Digital, 2.0 ch, ~192 kbps | Студия Jaskier [без рекламы]
English: 48 kHz, AC3 Dolby Digital, 5.1 ch, ~384 kbps

Субтитры: English (*.srt)
GeneralUnique ID : 248656552566931411569218446008398689736 (0xBB1182925A76737ABB33528BA858B5C8)Complete name : \F is for Family - Season 1\F.is.for.Family.S01E05.Bill.Murphys.Day.Off.1080p.NF.WEB-DL.DD5.1.x264-Jaskier.mkvFormat : MatroskaFormat version : Version 4 / Version 2File size : 788 MiBDuration : 28 min 48 sOverall bit rate mode : VariableOverall bit rate : 3 823 kb/sMovie name : Bill Murphy's Day OffEncoded date : UTC 2017-09-17 22:33:48Writing application : mkvmerge v15.0.0 ('Duel with the Devil') 64-bitWriting library : libebml v1.3.5 + libmatroska v1.4.5Attachments : Poster.jpg

VideoID : 1Format : AVCFormat/Info : Advanced Video CodecFormat profile : Main@L4Format settings, CABAC : YesFormat settings, ReFrames : 3 framesCodec ID : V_MPEG4/ISO/AVCDuration : 28 min 48 sBit rate mode : VariableBit rate : 3 320 kb/sMaximum bit rate : 4 980 kb/sWidth : 1 920 pixelsHeight : 1 080 pixelsDisplay aspect ratio : 16:9Frame rate mode : ConstantFrame rate : 23.976 (24000/1001) FPSColor space : YUVChroma subsampling : 4:2:0Bit depth : 8 bitsScan type : ProgressiveBits/(Pixel*Frame) : 0.067Stream size : 668 MiB (85%)Writing library : x264 core 118Encoding settings : cabac=1 / ref=3 / deblock=1:0:0 / analyse=0x1:0x111 / me=umh / subme=10 / psy=1 / psy_rd=1.00:0.00 / mixed_ref=1 / me_range=24 / chroma_me=1 / trellis=2 / 8x8dct=0 / cqm=0 / deadzone=21,11 / fast_pskip=1 / chroma_qp_offset=-2 / threads=8 / sliced_threads=0 / nr=0 / decimate=1 / interlaced=0 / bluray_compat=0 / constrained_intra=0 / bframes=2 / b_pyramid=0 / b_adapt=2 / b_bias=0 / direct=3 / weightb=1 / open_gop=0 / weightp=2 / keyint=48 / keyint_min=25 / scenecut=0 / intra_refresh=0 / rc_lookahead=0 / rc=2pass / mbtree=1 / bitrate=3320 / ratetol=1.0 / qcomp=0.50 / qpmin=6 / qpmax=51 / qpstep=4 / cplxblur=20.0 / qblur=0.5 / vbv_maxrate=4980 / vbv_bufsize=6640 / nal_hrd=vbr / ip_ratio=1.40 / aq=1:1.00Language : EnglishDefault : YesForced : No

Audio #1ID : 2Format : AC-3Format/Info : Audio Coding 3Mode extension : CM (complete main)Format settings, Endianness : BigCodec ID : A_AC3Duration : 28 min 48 sBit rate mode : ConstantBit rate : 192 kb/sChannel(s) : 2 channelsChannel positions : Front: L RSampling rate : 48.0 kHzFrame rate : 31.250 FPS (1536 spf)Bit depth : 16 bitsCompression mode : LossyStream size : 39.6 MiB (5%)Title : MVO JaskierLanguage : RussianDefault : YesForced : No

Audio #2ID : 3Format : AC-3Format/Info : Audio Coding 3Mode extension : CM (complete main)Format settings, Endianness : BigCodec ID : A_AC3Duration : 28 min 48 sBit rate mode : ConstantBit rate : 384 kb/sChannel(s) : 6 channelsChannel positions : Front: L C R, Side: L R, LFESampling rate : 48.0 kHzFrame rate : 31.250 FPS (1536 spf)Bit depth : 16 bitsCompression mode : LossyStream size : 79.1 MiB (10%)Title : OriginalLanguage : EnglishDefault : NoForced : No

TextID : 4Format : UTF-8Codec ID : S_TEXT/UTF8Codec ID/Info : UTF-8 Plain TextDuration : 28 min 7 sBit rate : 100 b/sCount of elements : 561Stream size : 20.7 KiB (0%)Title : SDHLanguage : EnglishDefault : NoForced : No

Menu00:00:05.005 : en:00:00:05.00500:01:36.722 : en:00:01:36.722
(Полноразмерные скриншоты открываются кликом по миниатюре)
The Bleedin' in Sweden
Saturday Bloody Saturday
The Trough
'F' Is for Halloween
Bill Murphy's Day Off
O Holy Moly Night
<img class="smile" src="//static.t-ru.org/smiles/icon_exclaim.gif" alt=""> Внимание! В сериале присутствует ненормативная лексика! 18+ <img class="smile" src="//static.t-ru.org/smiles/icon_exclaim.gif" alt="">

Трекер:  [ 18-Сен-2017 02:24 ]

  

Скачать .torrent

Размер .torrent файла 13 KB


Размер: 4.79 GB
Хэш (hash) релиза: 7d43c6272284f5481050d9dda705634d48dd62f0
Подписка на обновления:

Еще никто не оставлял запись к записи скачать торрент С значит Семья F is For Family . Будь первым!

!Обратная связь