Скачать через торрент Елена - принцесса Авалора Elena of Avalor Фильм бесплатно в хорошем качестве torrent

Скачивайте на UnionPeer.org фильмы через торрент без регистрации. Новинки кино в хорошем качестве через торрент. На UnionPeer.org можно скачать через торрент фильмы 2014 и 2015 годов. Самые новые фильмы.

Скачать торрент Елена - принцесса Авалора Elena of Avalor бесплатно через .torrent фильм мультфильм сериал

Если у вас наблюдаются проблемы со скриншотами, переходом по ссылками, скачиванием торрентов - проблемы в блокировщике рекламы AdBlock. #хорошегоДня!


Статистика раздачи
Размер:  5.3 GB   |    Зарегистрирован:  1 месяц 5 дней   |    .torrent скачан:  14 раз   |   
Раздают:  1  
   
Загрузка...
 
Автор Сообщение

Galfimbul

avatar Galfimbul


Елена - принцесса Авалора / Elena of Avalor
Год выпуска: 2016
Страна: США, Disney Television Animation, ICON Creative Studio, TeamTO
Жанр: мультсериал, детский, семейный, приключения
Продолжительность: 00:23:00
Перевод: Профессиональный (дублированный) - Студия "Невафильм" по заказу "The Walt Disney Company"
Русские субтитры: нет

Режиссёр: Craig Gerber / Крэг ГерберОписание: Удивительная история юной Елены, наследницы трона королевства Авалор. В день празднования пятнадцатилетия принцессы, на Авалор напала злая колдунья, которая заточила Елену в магический амулет. Лишь спустя 41 год ей удалось освободиться от заклятия, при этом не постарев ни на день! Теперь законная наследница трона должна занять место, принадлежащее ей по праву. С помощью своего волшебного дара, мудрых советов наставников и, конечно, поддержки друзей, добрая и смелая Елена старается достойно справляться с новой ролью.
1 серия. Первый день правления / First Day of Rule
2 серия. Идеальная сестра / Model Sister
3 серия. Жгучая ярость / All Heated Up
4 серия. Остров юности / Island of Youth
5 серия. Заколдованные / Spellbound
6 серия. Самовлюбленный принц / Prince Too Charming
7 серия. Нашлись и потерялись / Finders Leapers
8 серия. Королевский клуб / Royal Retreat
9 серия. День памяти / A Day to Remember
10 серия. Скипетр света / The Scepter of Light

12 серия. Олабол / Olaball
13 серия. Полет ягуаров / Flight of the Jaquins
14 серия. Хрустальная ловушка / Crystal in the Rough
15 серия. Принцесса-рыцарь / The Princess Knight

21 серия. Королевство крылатых ягуаров / Realm of the Jaquins
<div class="sp-wrap">
<div class="sp-head folded">скрытый текст</div>
<div class="sp-body">https://en.wikipedia.org/wiki/Elena_of_Avalor#Episodes
</div>
</div>
Доп. информация:



Семпл: https://yadi.sk/i/up-ToDxKyVeuZ

Релиз группы: Качество видео: DVB
Формат видео: MPEG-TS

Видео: MPEG4 Video (H264), 720x576@785x576 (4:3), анаморф, 25 fps, 1700 kbps
Аудио: MPEG Audio, 2 сh, 48 kHz, 192 kbps <img class="smile" src="//static.t-ru.org/smiles/icon_arrow.gif" alt=""> Все раздачи мультсериала <img class="smile" src="//static.t-ru.org/smiles/icon_arrow2.gif" alt="">
General
ID : 1 (0x1)
Complete name : D:\Елена - принцесса Авалора. (2016)_DVB by SLuMeP\01с. First Day of Rule.ts
Format : MPEG-TS
File size : 326 MiB
Duration : 23 min 22 s
Overall bit rate mode : Variable
Overall bit rate : 1 952 kb/s

Video
ID : 212 (0xD4)
Menu ID : 1312 (0x520)
Format : AVC
Format/Info : Advanced Video Codec
Format profile : High@L3
Format settings, CABAC : Yes
Format settings, ReFrames : 4 frames
Format settings, GOP : M=4, N=28
Codec ID : 27
Duration : 23 min 22 s
Bit rate : 1 662 kb/s
Width : 720 pixels
Height : 576 pixels
Display aspect ratio : 4:3
Frame rate : 25.000 FPS
Standard : PAL
Color space : YUV
Chroma subsampling : 4:2:0
Bit depth : 8 bits
Scan type : Interlaced
Scan type, store method : Separated fields
Scan order : Top Field First
Bits/(Pixel*Frame) : 0.160
Stream size : 278 MiB (85%)
Color range : Limited
Color primaries : BT.601 PAL
Transfer characteristics : BT.470 System B, BT.470 System G
Matrix coefficients : BT.601

Audio
ID : 312 (0x138)
Menu ID : 1312 (0x520)
Format : MPEG Audio
Format version : Version 1
Format profile : Layer 2
Codec ID : 3
Duration : 23 min 22 s
Bit rate mode : Constant
Bit rate : 192 kb/s
Channel(s) : 2 channels
Sampling rate : 48.0 kHz
Compression mode : Lossy
Stream size : 32.1 MiB (10%)
Language : Russian
Elena of Avalor - Official Theme Song
https://www.youtube.com/watch?v=-RRANDyP5QE
<div class="sp-wrap">
<div class="sp-head folded">Elena of Avalor - Theme Song</div>
<div class="sp-body">♫♫♫
In a kingdom old and grand
(Elena)
A princess bravely rules the land
(Elena)
With her family by her side
(Elena)
It's a wild and daring ride
Elena, Elena of Avalor

Myth and mystery everywhere
(Myth and mystery everywhere)
Loyal friends are always there
(Loyal friends always there)
Magic shines from deep within
(Magic shines from within)
Let her royal reign begin

Elena, Elena
Elena of Avalor</div>
</div>
Чтобы начать докачку новой серии, пользователям необходимо сделать следующее:
(1) остановить скачивание,
(2) удалить старый торрент у себя из клиента (старые серии удалять не надо),
(3) скачать новый торрент и запустить его у себя в клиенте вместо старого, при этом указать клиенту путь в старую папку куда и должно происходить скачивание новых серий.
Ваш клиент при этом должен произвести хеширование (проверку) старой папки (если не производит сам - помогите ему сделать это), и будет докачивать только те серии которых у вас ещё нет. Старые серии при этом не удаляются, а продолжают раздаваться!
Eсли вы уже удалили старые серии, то предотвратить повторную закачку старых серий можно, отжав галочку в соответсвующих местах при запуске нового торрента. По возможности, желательно не удалять старые серии как можно дольше чтобы релизёр не столько продолжал раздавать старые серии, а смог сконцентрироваться на новых.
Добавлена 21 серия.

PS. перекачайте торрент-файл !

Трекер:  [ 17-Сен-2017 13:54 ]

  

Скачать .torrent

Размер .torrent файла 28 KB


Размер: 5.3 GB
Хэш (hash) релиза: a88aa0007ba36a45214f5c40088d3521ad69369a
Подписка на обновления:

Еще никто не оставлял запись к записи скачать торрент Елена - принцесса Авалора Elena of Avalor . Будь первым!

!Обратная связь