Скачать через торрент Дикие Коты или Команда Отчаянных Трапперов WildC.A.T.S Фильм бесплатно в хорошем качестве torrent

Скачивайте на UnionPeer.org фильмы через торрент без регистрации. Новинки кино в хорошем качестве через торрент. На UnionPeer.org можно скачать через торрент фильмы 2014 и 2015 годов. Самые новые фильмы.

Скачать торрент Дикие Коты или Команда Отчаянных Трапперов WildC.A.T.S бесплатно через .torrent фильм мультфильм сериал

Если у вас наблюдаются проблемы со скриншотами, переходом по ссылками, скачиванием торрентов - проблемы в блокировщике рекламы AdBlock. #хорошегоДня!


Статистика раздачи
Размер:  11.75 GB   |    Зарегистрирован:  1 месяц 5 дней   |    .torrent скачан:  9 раз   |   
Раздают:  1  
   
Загрузка...
 
Автор Сообщение

Galfimbul

avatar Galfimbul


Дикие Коты или Команда Отчаянных Трапперов / WildC.A.T.SThe Complete Series
Английское название: WildC.A.T.S
Русское название: Дикие Коты или Команда Отчаянных Трапперов
Год выпуска: 1994
Страна: США
Жанр: приключения, фантастика, боевик
Продолжительность: ТВ (13 эп.), ~ 23 минуты
Перевод: Профессиональный (Многоголосный, закадровый) Ren-TV
Перевод: Авторский (Одноголосный, закадровый) Сергей Кузнецов
Субтитры: НетРежиссёр: Джим Ли / Jim Lee

Описание: Дикие коты - это команда людей-киборгов, борющихся со злом. Коты пытаются не дать демонитам завладеть сферой, с помощью которой они будут править миром. Но смогут ли они это сделать...Релиз от: Над релизом работали:
Выражаю огромнейшую благодарность следующим лицам:
Deman - предоставил оригинальные DVD диски, предоставил оцифровки звука Ren-TV, Сергея Кузнецова.
GoldSword - предоставил оцифровки звука Ren-TV.
Gazer - предоставил кассеты с переводом Ren-TV.
Dimon84 - предоставил кассеты с переводом Ren-TV.
ALEKS KV - предоставил кассеты с переводом Ren-TV, оцифровка, сведение, итоговый муксинг.Ссылка на остальные раздачи

Доп. Информация:
В релизе содержится максимально доступное по качеству видео, так же заново оцифрованы и сведены все дорожки, которые удалось раздобыть. В предыдущей раздаче дорожки Ren-TV довольно низкого качества.
В озвучке Ren-TV имеется пропуск только в финальных титрах первой серии. Остальное всё полностью цельное и максимально полное.
Английский звук на DVD был в двух вариантах. 5.1 и 2.0. При исследовании выяснилось, что 5.1 звук дутый, но при этом 2.0 собран из того же дутого 5.1, а не с исходника. Посему в релизе оставил 5.1, дабы дать возможность, кому вдруг надо будет, разобрать дорожку и поковырять.

Сэмпл

Качество: DVDRemux
Формат видео: MPEG-2
Контейнер: MKV
Аудио кодек: AC3
Видео: MPEG-2, 720x480, 8bit, 29.970 fps, 5800 kbps
Аудио:

русская: Dolby AC3 48000Hz --|DualMono|-- 192Kbps [Ren-TV] (Серии 01-13)
русская: Dolby AC3 48000Hz --|DualMono|-- 192Kbps [Сергей Кузнецов] (Серии 01-04)
английская: Dolby AC3 48000Hz --|5.1|-- 192Kbps [Original] (Серии 01-13)
01. Падение Тёмного Клинка
02. Стальное сердце
03. Призыв Коды
04. Зло внутри
05. Разборка
06. Жизнь на волоске
07. Душа гиганта
08. Преданные
09. Остриё Чёрного Лезвия
10. А дальше пустота
11. Спецподразделение
12. Заключительная игра - Часть 1
13. Заключительная игра - Часть 2
GeneralUnique ID : 190292764541349418131801107495737568973 (0x8F290DA7E3BA79E2B097A313CCC32ECD)Complete name : xxxx\[M-KV2501] WildC.A.T.S 1x01 [DVDRemux].mkvFormat : MatroskaFormat version : Version 4 / Version 2File size : 941 MiBDuration : 22 min 59 sOverall bit rate mode : VariableOverall bit rate : 5 718 kb/sEncoded date : UTC 2017-09-16 20:04:46Writing application : mkvmerge v8.3.0 ('Over the Horizon') 64bitWriting library : libebml v1.3.1 + libmatroska v1.4.2

VideoID : 1Format : MPEG VideoFormat version : Version 2Format profile : Main@MainFormat settings, BVOP : YesFormat settings, Matrix : CustomFormat settings, GOP : VariableFormat settings, picture st : FrameCodec ID : V_MPEG2Codec ID/Info : MPEG 1 or 2 VideoDuration : 22 min 59 sBit rate mode : VariableBit rate : 4 882 kb/sMaximum bit rate : 8 500 kb/sWidth : 720 pixelsHeight : 480 pixelsDisplay aspect ratio : 4:3Frame rate mode : VariableFrame rate : 29.970 FPSStandard : NTSCColor space : YUVChroma subsampling : 4:2:0Bit depth : 8 bitsScan type : InterlacedScan order : Top Field FirstCompression mode : LossyBits/(Pixel*Frame) : 0.471Time code of first frame : 00:00:00;00Time code source : Group of pictures headerGOP, Open/Closed : ClosedStream size : 803 MiB (85%)Title : OriginalLanguage : EnglishDefault : YesForced : No

Audio #1ID : 2Format : AC-3Format/Info : Audio Coding 3Mode extension : CM (complete main)Format settings, Endianness : BigCodec ID : A_AC3Duration : 22 min 59 sBit rate mode : ConstantBit rate : 192 kb/sChannel(s) : 2 channelsChannel positions : Front: L RSampling rate : 48.0 kHzFrame rate : 31.250 FPS (1536 spf)Bit depth : 16 bitsCompression mode : LossyStream size : 31.6 MiB (3%)Title : Ren-TVLanguage : RussianDefault : YesForced : No

Audio #2ID : 3Format : AC-3Format/Info : Audio Coding 3Mode extension : CM (complete main)Format settings, Endianness : BigCodec ID : A_AC3Duration : 22 min 59 sBit rate mode : ConstantBit rate : 192 kb/sChannel(s) : 2 channelsChannel positions : Front: L RSampling rate : 48.0 kHzFrame rate : 31.250 FPS (1536 spf)Bit depth : 16 bitsCompression mode : LossyStream size : 31.6 MiB (3%)Title : Сергей КузнецовLanguage : RussianDefault : NoForced : No

Audio #3ID : 4Format : AC-3Format/Info : Audio Coding 3Mode extension : CM (complete main)Format settings, Endianness : BigCodec ID : A_AC3Duration : 22 min 59 sBit rate mode : ConstantBit rate : 448 kb/sChannel(s) : 6 channelsChannel positions : Front: L C R, Side: L R, LFESampling rate : 48.0 kHzFrame rate : 31.250 FPS (1536 spf)Bit depth : 16 bitsCompression mode : LossyStream size : 73.7 MiB (8%)Title : OriginalLanguage : EnglishDefault : NoForced : No
Внимание, данная раздача содержит эксклюзивный контент от M-KV2501. Использовать контент без баннера группы: , указания первоначального источника, а так же оригинальных названий файлов - ЗАПРЕЩЕНО! Уважайте чужой труд!


Трекер:  [ 17-Сен-2017 00:54 ]

  

Скачать .torrent

Размер .torrent файла 60 KB


Размер: 11.75 GB
Хэш (hash) релиза: 83d2ca1974b3bdca031ed0140947dbafed59cfd0
Подписка на обновления:

Еще никто не оставлял запись к записи скачать торрент Дикие Коты или Команда Отчаянных Трапперов WildC.A.T.S . Будь первым!

!Обратная связь